動漫花園資源網logo

 
 

會員頭像

發佈人:kingxc1

訂閱發佈人:

失落的宇宙 Lost Universe DVDRip 704x476 x264 10bit AC3 全 非LDRIP 付外挂字幕

簡介: 

介绍baike.baidu.com/link


——————————————————————————————————————————————————————————————————————————————————————————————————————————

Format                         : Matroska
Format version                 : Version 2
File size                      : 245 MiB
Duration                       : 22mn 36s
Overall bit rate               : 1 514 Kbps
Encoded date                   : UTC 2011-12-07 03:15:08
Writing application            : mkvmerge v4.9.1 ('Ich will') 编译于 Jul 11 2011 23:53:15
Writing library                : libebml v1.2.1 + libmatroska v1.1.1

Video
ID                             : 1
Format                         : AVC
Format/Info                    : Advanced Video Codec
Format profile                 : High [email protected]
Format settings, CABAC         : Yes
Format settings, ReFrames      : 16 frames
Muxing mode                    : Header stripping
Codec ID                       : V_MPEG4/ISO/AVC
Duration                       : 22mn 36s
Bit rate                       : 1 100 Kbps
Width                          : 704 pixels
Height                         : 476 pixels
Display aspect ratio           : 4:3
Original display aspect ratio  : 4:3
Frame rate mode                : Constant
Frame rate                     : 23.976 fps
Color space                    : YUV
Chroma subsampling             : 4:2:0
Bit depth                      : 10 bits
Scan type                      : Progressive
Bits/(Pixel*Frame)             : 0.137
Stream size                    : 178 MiB (73%)
Title                          : [Kagura] Lost Universe - 04 [DVDRip 704x476 x264 Hi10P AC3]
Writing library                : x264 core 119 r2106+629_tMod-10bit 136e5b6
Encoding settings              : cabac=1 / ref=16 / deblock=1:-1:-1 / analyse=0x3:0x113 / me=umh / subme=10 / psy=1 / fade_compensate=0.00 / psy_rd=0.90:0.00 / mixed_ref=1 / me_range=32 / chroma_me=1 / trellis=2 / 8x8dct=1 / cqm=0 / deadzone=9,9 / fast_pskip=1 / chroma_qp_offset=-2 / threads=12 / sliced_threads=0 / nr=0 / decimate=0 / interlaced=0 / bluray_compat=0 / constrained_intra=0 / fgo=0 / bframes=7 / b_pyramid=2 / b_adapt=2 / b_bias=0 / direct=3 / weightb=1 / open_gop=0 / weightp=2 / keyint=360 / keyint_min=23 / scenecut=40 / intra_refresh=0 / rc=crf / mbtree=0 / crf=17.5000 / qcomp=0.70 / qpmin=8 / qpmax=50 / qpstep=4 / ip_ratio=1.40 / pb_ratio=1.30 / aq=2:1.00
Language                       : Japanese
Default                        : Yes
Forced                         : Yes

Audio
ID                             : 2
Format                         : AC-3
Format/Info                    : Audio Coding 3
Mode extension                 : CM (complete main)
Format settings, Endianness    : Big
Muxing mode                    : Header stripping
Codec ID                       : A_AC3
Duration                       : 22mn 36s
Bit rate mode                  : Constant
Bit rate                       : 384 Kbps
Channel(s)                     : 2 channels
Channel positions              : Front: L R
Sampling rate                  : 48.0 KHz
Compression mode               : Lossy
Delay relative to video        : 11ms
Stream size                    : 62.1 MiB (25%)
Language                       : Japanese
Default                        : Yes
Forced                         : No
————————————————————————————————————————————————————————————————————————————————————————————————————————

转载资源

此版本非网络上流传的LDRIP 除去刚刚发的DVDISO外是最清晰的版本。

字幕地址 pan.baidu.com/s/1dD0g5X3

注: 迅雷离线可以秒


會員專用連接: 失落的宇宙 Lost Universe DVDRip 704x476 x264 10bit AC3 全 非LDRIP 付外挂字幕

Magnet連接: magnet:?xt=urn:btih:GZMFGE2JTZ532BT74KPXEBLEWG3K33XC

Magnet連接typeII: magnet:?xt=urn:btih:36585313499e7bbd067fe29f720564b1b6adeee2

PikPak載點: 保存至pikpak ?

彈幕播放連接: ddplay:magnet:?xt=urn:btih:GZMFGE2JTZ532BT74KPXEBLEWG3K33XC 播放器官方下載地址

外部搜索連接: 從谷歌搜索資源種子


  • mkv[Kagura] Lost Universe [DVDRip 704x476 x264 Hi10P AC3]/[Kagura] Lost Universe - 01 [DVDRip 704x476 x264 Hi10P AC3].mkv 295.7MB
  • mkv[Kagura] Lost Universe [DVDRip 704x476 x264 Hi10P AC3]/[Kagura] Lost Universe - 02 [DVDRip 704x476 x264 Hi10P AC3].mkv 261.1MB
  • mkv[Kagura] Lost Universe [DVDRip 704x476 x264 Hi10P AC3]/[Kagura] Lost Universe - 03 [DVDRip 704x476 x264 Hi10P AC3].mkv 271.9MB
  • mkv[Kagura] Lost Universe [DVDRip 704x476 x264 Hi10P AC3]/[Kagura] Lost Universe - 04 [DVDRip 704x476 x264 Hi10P AC3].mkv 244.7MB
  • mkv[Kagura] Lost Universe [DVDRip 704x476 x264 Hi10P AC3]/[Kagura] Lost Universe - 05 [DVDRip 704x476 x264 Hi10P AC3].mkv 246.5MB
  • mkv[Kagura] Lost Universe [DVDRip 704x476 x264 Hi10P AC3]/[Kagura] Lost Universe - 06 [DVDRip 704x476 x264 Hi10P AC3].mkv 257.8MB
  • mkv[Kagura] Lost Universe [DVDRip 704x476 x264 Hi10P AC3]/[Kagura] Lost Universe - 07 [DVDRip 704x476 x264 Hi10P AC3].mkv 239MB
  • mkv[Kagura] Lost Universe [DVDRip 704x476 x264 Hi10P AC3]/[Kagura] Lost Universe - 08 [DVDRip 704x476 x264 Hi10P AC3].mkv 235MB
  • mkv[Kagura] Lost Universe [DVDRip 704x476 x264 Hi10P AC3]/[Kagura] Lost Universe - 09 [DVDRip 704x476 x264 Hi10P AC3].mkv 259.5MB
  • mkv[Kagura] Lost Universe [DVDRip 704x476 x264 Hi10P AC3]/[Kagura] Lost Universe - 10 [DVDRip 704x476 x264 Hi10P AC3].mkv 242.8MB
  • mkv[Kagura] Lost Universe [DVDRip 704x476 x264 Hi10P AC3]/[Kagura] Lost Universe - 11 [DVDRip 704x476 x264 Hi10P AC3].mkv 232.1MB
  • mkv[Kagura] Lost Universe [DVDRip 704x476 x264 Hi10P AC3]/[Kagura] Lost Universe - 12 [DVDRip 704x476 x264 Hi10P AC3].mkv 269.6MB
  • mkv[Kagura] Lost Universe [DVDRip 704x476 x264 Hi10P AC3]/[Kagura] Lost Universe - 13 [DVDRip 704x476 x264 Hi10P AC3].mkv 262.4MB
  • mkv[Kagura] Lost Universe [DVDRip 704x476 x264 Hi10P AC3]/[Kagura] Lost Universe - 14 [DVDRip 704x476 x264 Hi10P AC3].mkv 273.3MB
  • mkv[Kagura] Lost Universe [DVDRip 704x476 x264 Hi10P AC3]/[Kagura] Lost Universe - 15 [DVDRip 704x476 x264 Hi10P AC3].mkv 268MB
  • mkv[Kagura] Lost Universe [DVDRip 704x476 x264 Hi10P AC3]/[Kagura] Lost Universe - 16 [DVDRip 704x476 x264 Hi10P AC3].mkv 279.4MB
  • mkv[Kagura] Lost Universe [DVDRip 704x476 x264 Hi10P AC3]/[Kagura] Lost Universe - 17 [DVDRip 704x476 x264 Hi10P AC3].mkv 287.6MB
  • mkv[Kagura] Lost Universe [DVDRip 704x476 x264 Hi10P AC3]/[Kagura] Lost Universe - 18 [DVDRip 704x476 x264 Hi10P AC3].mkv 272.3MB
  • mkv[Kagura] Lost Universe [DVDRip 704x476 x264 Hi10P AC3]/[Kagura] Lost Universe - 19 [DVDRip 704x476 x264 Hi10P AC3].mkv 259.8MB
  • mkv[Kagura] Lost Universe [DVDRip 704x476 x264 Hi10P AC3]/[Kagura] Lost Universe - 20 [DVDRip 704x476 x264 Hi10P AC3].mkv 256.7MB
  • mkv[Kagura] Lost Universe [DVDRip 704x476 x264 Hi10P AC3]/[Kagura] Lost Universe - 21 [DVDRip 704x476 x264 Hi10P AC3].mkv 274.2MB
  • mkv[Kagura] Lost Universe [DVDRip 704x476 x264 Hi10P AC3]/[Kagura] Lost Universe - 22 [DVDRip 704x476 x264 Hi10P AC3].mkv 251.4MB
  • mkv[Kagura] Lost Universe [DVDRip 704x476 x264 Hi10P AC3]/[Kagura] Lost Universe - 23 [DVDRip 704x476 x264 Hi10P AC3].mkv 374.1MB
  • mkv[Kagura] Lost Universe [DVDRip 704x476 x264 Hi10P AC3]/[Kagura] Lost Universe - 24 [DVDRip 704x476 x264 Hi10P AC3].mkv 273.4MB
  • mkv[Kagura] Lost Universe [DVDRip 704x476 x264 Hi10P AC3]/[Kagura] Lost Universe - 25 [DVDRip 704x476 x264 Hi10P AC3].mkv 272MB
  • mkv[Kagura] Lost Universe [DVDRip 704x476 x264 Hi10P AC3]/[Kagura] Lost Universe - 26 [DVDRip 704x476 x264 Hi10P AC3].mkv 268.1MB

***查看評論*** 請注意評論內容可能包含劇透

Processed in 0.001 second(s), 2 queries
Powered by tedmind.com Version: 1.8.1