動漫花園資源網logo

 
 

會員頭像

發佈人:kingxc1

訂閱發佈人:

柳生十兵卫第一季 心形眼带的秘密 Jubei-chan - Secret of the Lovely Eyepatch DVDRIp 日英双音轨12全

簡介: 

介绍movie.douban.com/subject/1997791/

本来网上还有个DVDISO的 但是没源了

————————————————————————————————————————————————————————————————————————————————————————————————————————————————————


Format                         : OGG
File size                      : 233 MiB
Duration                       : 24mn 27s
Overall bit rate mode          : Variable
Overall bit rate               : 1 332 Kbps

Video
ID                             : 0 (0x0)
Format                         : MPEG-4 Visual
Codec ID                       : DX50
Codec ID/Hint                  : DivX 5
Duration                       : 24mn 27s
Bit rate                       : 1 042 Kbps
Width                          : 640 pixels
Height                         : 480 pixels
Display aspect ratio           : 4:3
Frame rate                     : 23.976 fps
Color space                    : YUV
Chroma subsampling             : 4:2:0
Compression mode               : Lossy
Bits/(Pixel*Frame)             : 0.141
Stream size                    : 182 MiB (78%)
Writing library                : libVorbis 1.0 RC3 (UTC 2001-12-17)

Audio #1
ID                             : 1 (0x1)
Format                         : Vorbis
Format settings, Floor         : 1
Duration                       : 24mn 27s
Bit rate mode                  : Variable
Bit rate                       : 112 Kbps
Channel(s)                     : 2 channels
Sampling rate                  : 48.0 KHz
Compression mode               : Lossy
Stream size                    : 19.6 MiB (8%)
Writing library                : libVorbis 1.0 RC3 (UTC 2001-12-17)
Language                       : English

Audio #2
ID                             : 2 (0x2)
Format                         : Vorbis
Format settings, Floor         : 1
Duration                       : 24mn 27s
Bit rate mode                  : Variable
Bit rate                       : 112 Kbps
Channel(s)                     : 2 channels
Sampling rate                  : 48.0 KHz
Compression mode               : Lossy
Stream size                    : 19.6 MiB (8%)
Writing library                : libVorbis 1.0 RC3 (UTC 2001-12-17)
Language                       : Japanese

Text
ID                             : 3 (0x3)
Format                         : Subrip
Writing library                : libVorbis 1.0 RC3 (UTC 2001-12-17)
Language                       : English

——————————————————————————————————————————————————————————————————————————————————————————————————

我记得动漫之家出过字幕,有字幕的可以回复里面提供一下

迅雷离线可以秒


會員專用連接: 柳生十兵卫第一季 心形眼带的秘密 Jubei-chan - Secret of the Lovely Eyepatch DVDRIp 日英双音轨12全

Magnet連接: magnet:?xt=urn:btih:RYRXOGJSQGRD5TU7YMADWJHTOVLXZ2C6

Magnet連接typeII: magnet:?xt=urn:btih:8e2377193281a23ece9fc3003b24f375577ce85e

PikPak載點: 保存至pikpak ?

彈幕播放連接: ddplay:magnet:?xt=urn:btih:RYRXOGJSQGRD5TU7YMADWJHTOVLXZ2C6 播放器官方下載地址

外部搜索連接: 從谷歌搜索資源種子


  • unknownJubei-chan - Secret of the Lovely Eyepatch/[a4e]jubei_chan_the_ninja_girl_ep_01[divx5].ogm 233.3MB
  • srtJubei-chan - Secret of the Lovely Eyepatch/[a4e]jubei_chan_the_ninja_girl_ep_01[divx5].srt 33KB
  • unknownJubei-chan - Secret of the Lovely Eyepatch/[a4e]jubei_chan_the_ninja_girl_ep_02[divx5].ogm 233MB
  • srtJubei-chan - Secret of the Lovely Eyepatch/[a4e]jubei_chan_the_ninja_girl_ep_02[divx5].srt 27.2KB
  • unknownJubei-chan - Secret of the Lovely Eyepatch/[a4e]jubei_chan_the_ninja_girl_ep_03[divx5].ogm 233MB
  • srtJubei-chan - Secret of the Lovely Eyepatch/[a4e]jubei_chan_the_ninja_girl_ep_03[divx5].srt 25.2KB
  • unknownJubei-chan - Secret of the Lovely Eyepatch/[a4e]jubei_chan_the_ninja_girl_ep_04[divx5].ogm 212.3MB
  • srtJubei-chan - Secret of the Lovely Eyepatch/[a4e]jubei_chan_the_ninja_girl_ep_04[divx5].srt 23.9KB
  • unknownJubei-chan - Secret of the Lovely Eyepatch/[a4e]jubei_chan_the_ninja_girl_ep_05[divx5].ogm 233.1MB
  • srtJubei-chan - Secret of the Lovely Eyepatch/[a4e]jubei_chan_the_ninja_girl_ep_05[divx5].srt 24.2KB
  • unknownJubei-chan - Secret of the Lovely Eyepatch/[a4e]jubei_chan_the_ninja_girl_ep_06[divx5].ogm 216.2MB
  • srtJubei-chan - Secret of the Lovely Eyepatch/[a4e]jubei_chan_the_ninja_girl_ep_06[divx5].srt 29KB
  • unknownJubei-chan - Secret of the Lovely Eyepatch/[a4e]jubei_chan_the_ninja_girl_ep_07[divx5].ogm 233.7MB
  • srtJubei-chan - Secret of the Lovely Eyepatch/[a4e]jubei_chan_the_ninja_girl_ep_07[divx5].srt 18.6KB
  • unknownJubei-chan - Secret of the Lovely Eyepatch/[a4e]jubei_chan_the_ninja_girl_ep_08[divx5.03].ogm 230.7MB
  • srtJubei-chan - Secret of the Lovely Eyepatch/[a4e]jubei_chan_the_ninja_girl_ep_08[divx5.03].srt 24.2KB
  • unknownJubei-chan - Secret of the Lovely Eyepatch/[a4e]jubei_chan_the_ninja_girl_ep_09[divx5.03].ogm 230.7MB
  • srtJubei-chan - Secret of the Lovely Eyepatch/[a4e]jubei_chan_the_ninja_girl_ep_09[divx5.03].srt 37.9KB
  • unknownJubei-chan - Secret of the Lovely Eyepatch/[a4e]jubei_chan_the_ninja_girl_ep_10[divx5.03].ogm 231.1MB
  • srtJubei-chan - Secret of the Lovely Eyepatch/[a4e]jubei_chan_the_ninja_girl_ep_10[divx5.03].srt 36.5KB
  • unknownJubei-chan - Secret of the Lovely Eyepatch/[a4e]jubei_chan_the_ninja_girl_ep_11[divx5.03].ogm 228.4MB
  • srtJubei-chan - Secret of the Lovely Eyepatch/[a4e]jubei_chan_the_ninja_girl_ep_11[divx5.03].srt 28.5KB
  • unknownJubei-chan - Secret of the Lovely Eyepatch/[a4e]jubei_chan_the_ninja_girl_ep_12[divx5.03].ogm 214.4MB
  • srtJubei-chan - Secret of the Lovely Eyepatch/[a4e]jubei_chan_the_ninja_girl_ep_12[divx5.03].srt 30.5KB
  • unknownJubei-chan - Secret of the Lovely Eyepatch/[a4e]jubei_chan_the_ninja_girl_ep_13[divx5.03].ogm 228.6MB
  • srtJubei-chan - Secret of the Lovely Eyepatch/[a4e]jubei_chan_the_ninja_girl_ep_13[divx5.03].srt 31.9KB
  • unknownJubei-chan - Secret of the Lovely Eyepatch/Jubei-chan - Secret of the Lovely Eyepatch.chm 59.1KB
  • txtJubei-chan - Secret of the Lovely Eyepatch/jubei_chan.txt 1KB

***查看評論*** 請注意評論內容可能包含劇透

Processed in 0.001 second(s), 2 queries
Powered by tedmind.com Version: 1.8.1