動漫花園資源網logo

 
 

會員頭像

發佈人:kingxc1

訂閱發佈人:

十二生肖守护神 十二戦支 爆烈エトレンジャー The Twelve Warriors Bakuretsu Eto-ranger LDRIP 39全附外挂字幕39集全

簡介: 

介绍baike.baidu.com/link


Format                         : AVI
Format/Info                    : Audio Video Interleave
File size                      : 251 MiB
Duration                       : 25mn 29s
Overall bit rate               : 1 375 Kbps
Writing application            : Nandub v1.0rc1
Writing library                : Nandub build 1841/release

Video
ID                             : 0
Format                         : MPEG-4 Visual
Format settings, BVOP          : Yes
Format settings, QPel          : No
Format settings, GMC           : No warppoints
Format settings, Matrix        : Default (H.263)
Codec ID                       : XVID
Codec ID/Hint                  : XviD
Duration                       : 25mn 29s
Bit rate                       : 1 206 Kbps
Width                          : 640 pixels
Height                         : 480 pixels
Display aspect ratio           : 4:3
Frame rate                     : 23.976 fps
Color space                    : YUV
Chroma subsampling             : 4:2:0
Bit depth                      : 8 bits
Scan type                      : Progressive
Compression mode               : Lossy
Bits/(Pixel*Frame)             : 0.164
Stream size                    : 220 MiB (88%)

Audio
ID                             : 1
Format                         : MPEG Audio
Format version                 : Version 1
Format profile                 : Layer 3
Mode                           : Joint stereo
Mode extension                 : MS Stereo
Codec ID                       : 55
Codec ID/Hint                  : MP3
Duration                       : 25mn 29s
Bit rate mode                  : Constant
Bit rate                       : 160 Kbps
Channel(s)                     : 2 channels
Sampling rate                  : 48.0 KHz
Compression mode               : Lossy
Stream size                    : 29.2 MiB (12%)
Alignment                      : Split accross interleaves
Interleave, duration           : 42 ms (1.00 video frame)
Interleave, preload duration   : 500 ms

————————————————————————————————————————————————————————————————————————————————————————————————————

注:迅雷离线可秒

字幕地址sub.makedie.me/xml/sub/459/459769.xml

转帖地址请注明dmhy.anoneko.com

 

 


會員專用連接: 十二生肖守护神 十二戦支 爆烈エトレンジャー The Twelve Warriors Bakuretsu Eto-ranger LDRIP 39全附外挂字幕39集全

Magnet連接: magnet:?xt=urn:btih:P3VWKKQIVTTQZKRUNC2J55T6VGTHM7CY

Magnet連接typeII: magnet:?xt=urn:btih:7eeb652a08ace70caa3468b49ef67ea9a6767c58

PikPak載點: 保存至pikpak ?

彈幕播放連接: ddplay:magnet:?xt=urn:btih:P3VWKKQIVTTQZKRUNC2J55T6VGTHM7CY 播放器官方下載地址

外部搜索連接: 從谷歌搜索資源種子


  • avi十二生肖守護神/Eto Rangers ep01 - Raw (CS 640x480 XviD).avi 250.8MB
  • avi十二生肖守護神/Eto Rangers ep02 - Raw (CS 640x480 XviD).avi 214MB
  • avi十二生肖守護神/Eto Rangers ep06 - Raw (CS 640x480 XviD).avi 181.9MB
  • avi十二生肖守護神/Eto Rangers ep07 - Raw (CS 640x480 XviD).avi 149.2MB
  • avi十二生肖守護神/Eto Rangers ep08 - Raw (CS 640x480 XviD).avi 149.2MB
  • avi十二生肖守護神/Eto Rangers ep09 - Raw (CS 640x480 XviD).avi 173.1MB
  • avi十二生肖守護神/Eto Rangers ep10 - Raw (CS 640x480 XviD).avi 161.3MB
  • avi十二生肖守護神/Eto Rangers ep11 - Raw (CS 640x480 XviD).avi 147.3MB
  • avi十二生肖守護神/Eto Rangers ep12 - Raw (CS 640x480 XviD).avi 158.7MB
  • avi十二生肖守護神/Eto Rangers ep13 - Raw (CS 640x480 XviD).avi 183.1MB
  • avi十二生肖守護神/Eto Rangers ep14 - Raw (CS 640x480 XviD).avi 164.9MB
  • avi十二生肖守護神/Eto Rangers ep15 - Raw (CS 640x480 XviD).avi 190.5MB
  • avi十二生肖守護神/Eto Rangers ep16 - Raw (CS 640x480 XviD).avi 164.2MB
  • avi十二生肖守護神/Eto Rangers ep17 - Raw (CS 640x480 XviD).avi 165.6MB
  • avi十二生肖守護神/Eto Rangers ep18 - Raw (CS 640x480 XviD).avi 196.5MB
  • avi十二生肖守護神/Eto Rangers ep19 - Raw (CS 640x480 XviD).avi 164.3MB
  • avi十二生肖守護神/Eto Rangers ep20 - Raw (CS 640x480 XviD).avi 186.3MB
  • avi十二生肖守護神/Eto Rangers ep21 - Raw (CS 640x480 XviD).avi 186.5MB
  • avi十二生肖守護神/Eto Rangers ep22 - Raw (CS 640x480 XviD).avi 185.6MB
  • avi十二生肖守護神/Eto Rangers ep23 - Raw (CS 640x480 XviD).avi 172.9MB
  • avi十二生肖守護神/Eto Rangers ep24 - Raw (CS 640x480 XviD).avi 198.9MB
  • avi十二生肖守護神/Eto Rangers ep25 - Raw (CS 640x480 XviD).avi 171.4MB
  • avi十二生肖守護神/Eto Rangers ep26 - Raw (CS 640x480 XviD).avi 165.3MB
  • avi十二生肖守護神/Eto Rangers ep27 - Raw (CS 640x480 XviD).avi 190MB
  • avi十二生肖守護神/Eto Rangers ep28 - Raw (CS 640x480 XviD).avi 192.9MB
  • avi十二生肖守護神/Eto Rangers ep29 - Raw (CS 640x480 XviD).avi 193.4MB
  • avi十二生肖守護神/Eto Rangers ep30 - Raw (CS 640x480 XviD).avi 153.5MB
  • avi十二生肖守護神/Eto Rangers ep31 - Raw (CS 640x480 XviD).avi 171.5MB
  • avi十二生肖守護神/Eto Rangers ep32 - Raw (CS 640x480 XviD).avi 179.7MB
  • avi十二生肖守護神/Eto Rangers ep33 - Raw (CS 640x480 XviD).avi 157MB
  • avi十二生肖守護神/Eto Rangers ep34 - Raw (CS 640x480 XviD).avi 146.6MB
  • avi十二生肖守護神/Eto Rangers ep35 - Raw (CS 640x480 XviD).avi 185.9MB
  • avi十二生肖守護神/Eto Rangers ep36 - Raw (CS 640x480 XviD).avi 218.7MB
  • avi十二生肖守護神/Eto Rangers ep37 - Raw (CS 640x480 XviD).avi 190.9MB
  • avi十二生肖守護神/Eto Rangers ep38 - Raw.avi 142.5MB
  • avi十二生肖守護神/Eto Rangers ep39 - Raw (CS 640x480 XviD).avi 244MB
  • mkv十二生肖守護神/[个人制作][十二戦支 爆烈 エトレンジャー][十二生肖守护神][XVID_MP3][简繁双字幕][中日双音轨][03V2] .mkv 222.7MB
  • mkv十二生肖守護神/[个人制作][十二戦支 爆烈 エトレンジャー][十二生肖守护神][XVID_MP3][简繁双字幕][中日双音轨][04] .mkv 236.6MB
  • mkv十二生肖守護神/[个人制作][十二戦支 爆烈 エトレンジャー][十二生肖守护神][XVID_MP3][简繁双字幕][中日双音轨][05].mkv 188.1MB
  • jpg十二生肖守護神/封面.jpg 92.8KB

***查看評論*** 請注意評論內容可能包含劇透

Processed in 0.001 second(s), 2 queries
Powered by tedmind.com Version: 1.8.1