動漫花園資源網logo

 
 

會員頭像

發佈人:fuyouquan

訂閱發佈人:

元气囝仔\Barakamon\ばらかもん(2014)[BDrip_1080p_HEVC_OPUS][01~12+NCOP+NCED+Menu+短剧场][外挂诸神简繁双语字幕]

簡介: 

https://www.yuque.com/books/share/245e1a1d-7663-4c52-b9f2-08d3f941d12f/gkbdmb

General

Unique ID : 178233283837129613148746237334608372702 (0x86167B5A0D66853099EDE7A1336763DE)
Complete name : ばらかもん 第03話「ひとんもち」(1920×1080_HEVC_OPUS).mkv
Format : Matroska
Format version : Version 4
File size : 722 MiB
Duration : 22 min 52 s
Overall bit rate : 4 413 kb/s
Encoded date : UTC 2020-03-27 02:23:03
Writing application : mkvmerge v44.0.0 ('Domino') 64-bit
Writing library : libebml v1.3.10 + libmatroska v1.5.2

 

Video

ID : 1
Format : HEVC
Format/Info : High Efficiency Video Coding
Format profile : Main [email protected]@Main
Codec ID : V_MPEGH/ISO/HEVC
Duration : 22 min 52 s
Bit rate : 4 224 kb/s
Width : 1 920 pixels
Height : 1 080 pixels
Display aspect ratio : 16:9
Frame rate mode : Constant
Frame rate : 23.976 (24000/1001) FPS
Color space : YUV
Chroma subsampling : 4:2:0
Bit depth : 10 bits
Bits/(Pixel*Frame) : 0.085
Stream size : 691 MiB (96%)
Default : Yes
Forced : No
Color range : Limited
Color primaries : BT.2020
Transfer characteristics : BT.2020 (10-bit)
Matrix coefficients : BT.2020 non-constant
SEI_rbsp_stop_one_bit : Missing

 

Audio

ID : 2
Format : Opus
Codec ID : A_OPUS
Duration : 22 min 52 s
Bit rate : 186 kb/s
Channel(s) : 2 channels
Channel layout : L R
Sampling rate : 48.0 kHz
Frame rate : 50.000 FPS (960 SPF)
Compression mode : Lossy
Stream size : 30.4 MiB (4%)
Writing library : Lavc58.17.100 libopus
Default : Yes
Forced : No

 

Menu

00:00:00.000 : :Avan
00:01:42.600 : :OP
00:03:12.600 : :Title
00:03:17.600 : :Apart
00:12:01.000 : :Bpart
00:20:35.000 : :ED
00:22:05.800 : :Cpart

 


會員專用連接: 元气囝仔\Barakamon\ばらかもん(2014)[BDrip_1080p_HEVC_OPUS][01~12+NCOP+NCED+Menu+短剧场][外挂诸神简繁双语字幕]

Magnet連接: magnet:?xt=urn:btih:NGN66T4VKK52XZD5MD24TEOD7M3SP3AY

Magnet連接typeII: magnet:?xt=urn:btih:699bef4f9552bbabe47d60f5c991c3fb3727ec18

PikPak載點: 保存至pikpak ?

彈幕播放連接: ddplay:magnet:?xt=urn:btih:NGN66T4VKK52XZD5MD24TEOD7M3SP3AY 播放器官方下載地址

外部搜索連接: 從谷歌搜索資源種子


  • unknown 792.8MB
  • unknown 56.3KB
  • unknown 697.3MB
  • unknown 64.7KB
  • unknown 64.8KB
  • unknown 698.1MB
  • unknown 61.1KB
  • unknown 61.2KB
  • unknown 721.8MB
  • unknown 69.4KB
  • unknown 69.5KB
  • unknown 690.3MB
  • unknown 64.7KB
  • unknown 64.8KB
  • unknown 56.2KB
  • unknown 78KB
  • unknown 78.1KB
  • unknown 702.2MB
  • unknown 66.9KB
  • unknown 67KB
  • unknown 648.2MB
  • unknown 72.1KB
  • unknown 72.3KB
  • unknown 687MB
  • unknown 71.2KB
  • unknown 71.3KB
  • unknown 706.9MB
  • unknown 67.8KB
  • unknown 67.9KB
  • unknown 669.5MB
  • unknown 59KB
  • unknown 59.1KB
  • unknown 540.2MB
  • unknown 73.1KB
  • unknown 73.2KB
  • unknown 642.9MB
  • unknown 69.9MB
  • unknown 201.5MB
  • unknown 82.4MB
  • unknown 189.3MB
  • unknown 208.7MB
  • unknown 71.3MB
  • unknown 187.1MB
  • unknown 65.4MB
  • unknown 167.9MB
  • unknown 70.1MB
  • unknown 215.8MB

***查看評論*** 請注意評論內容可能包含劇透

Processed in 0.001 second(s), 2 queries
Powered by tedmind.com Version: 1.8.1