動漫花園資源網logo

 
 

會員頭像

發佈人:fuyouquan

訂閱發佈人:

夢を味方に/恋焦がれて見た夢(WPCL 10679)【Cross Game|幸运四叶草|四叶游戏|クロスゲーム_ED1初回限定盘_APE】【2009】【絢香(Ayaka)】

簡介: 

 

 

 <iframe frameborder="no" border="0" marginwidth="0" marginheight="0" width=330 height=86 src="//music.163.com/outchain/player?type=2&id=550402&auto=1&height=66"></iframe>

CEU文件可以

  1.  Onedrive  ;Google Drive(cue)Google Drive(音频)另一个GD https://docs.google.com/uc?export=download&id=1y42aBqeH4nwbcx1In0juNxHubft0joF3国外小众网盘飞猫云
  2. 复制以下横线间内容新建

  3. REM GENRE JPop

    REM DATE 2009

    REM DISCID 3705F405

    REM COMMENT "ExactAudioCopy v0.99pb4"

    PERFORMER "絢香"

    TITLE "夢を味方に/恋焦がれて見た夢"

    FILE "絢香(Ayaka).-.[夢を味方に/恋焦がれて見た夢].单曲.(APE).ape" WAVE

      TRACK 01 AUDIO

        TITLE "夢を味方に"

        PERFORMER "絢香"

        INDEX 01 00:00:00

      TRACK 02 AUDIO

        TITLE "恋焦がれて見た夢"

        PERFORMER "絢香"

        INDEX 00 04:12:04

        INDEX 01 04:13:17

      TRACK 03 AUDIO

        TITLE "君がいるから <2009/2/13 Fan Club Live ver.>"

        PERFORMER "絢香"

        INDEX 00 10:14:34

        INDEX 01 10:17:46

      TRACK 04 AUDIO

        TITLE "夢を味方に <Instrumental>"

        PERFORMER "絢香"

        INDEX 00 15:07:73

        INDEX 01 15:10:11

      TRACK 05 AUDIO

        TITLE "恋焦がれて見た夢 <Instrumental>"

        PERFORMER "絢香"

        INDEX 00 19:22:17

        INDEX 01 19:23:29


     

 


會員專用連接: 夢を味方に/恋焦がれて見た夢(WPCL 10679)【Cross Game|幸运四叶草|四叶游戏|クロスゲーム_ED1初回限定盘_APE】【2009】【絢香(Ayaka)】

Magnet連接: magnet:?xt=urn:btih:R6YXE5YKMI2RWSUX4HHHJL7CHUE7TTH2

Magnet連接typeII: magnet:?xt=urn:btih:8fb172770a62351b4a97e1ce74afe23d09f9ccfa

PikPak載點: 保存至pikpak ?

彈幕播放連接: ddplay:magnet:?xt=urn:btih:R6YXE5YKMI2RWSUX4HHHJL7CHUE7TTH2 播放器官方下載地址

外部搜索連接: 從谷歌搜索資源種子


  • unknown絢香(Ayaka).-.[夢を味方に/恋焦がれて見た夢].单曲.(APE).ape 155.3MB

***查看評論*** 請注意評論內容可能包含劇透

Processed in 0.001 second(s), 2 queries
Powered by tedmind.com Version: 1.8.1