動漫花園資源網logo

 
 

會員頭像

發佈人:jackieliiy

訂閱發佈人:

發佈組LOGO

所屬發佈組:魔星字幕团

訂閱發佈組:

[MagicStar] 深深地恋爱! / 恋はDeepに! EP07 [WEBDL] [1080p] [HULU]【生】

簡介: 

HD 1080p from HULU JAPAN.
alt text
alt text

General Unique ID                      : 63146293962481025300589008463573938712 (0x2F8188A9DD929B907AFBF40928D5F218) Complete name                  : Koi.wa.Deep.ni.EP07.1080p.HULU.WEB-DL.AAC2.0.H.264-MagicStar.mkv Format                         : Matroska Format version                 : Version 4 File size                      : 1.47 GiB Duration                       : 51 min 34 s Overall bit rate               : 4 070 kb/s Encoded date                   : UTC 2021-05-28 19:55:02 Writing application            : mkvmerge v50.0.0 ('Awakenings') 64-bit Writing library                : libebml v1.4.0 + libmatroska v1.6.2 Cover                          : Yes Attachments                    : cover.png  Video ID                             : 1 Format                         : AVC Format/Info                    : Advanced Video Codec Format profile                 : [email protected] Format settings                : CABAC / 4 Ref Frames Format settings, CABAC         : Yes Format settings, Reference fra : 4 frames Codec ID                       : V_MPEG4/ISO/AVC Duration                       : 51 min 34 s Bit rate                       : 3 942 kb/s Width                          : 1 920 pixels Height                         : 1 080 pixels Display aspect ratio           : 16:9 Frame rate mode                : Constant Frame rate                     : 29.970 (29970/1000) FPS Original frame rate            : 29.970 (30000/1001) FPS Color space                    : YUV Chroma subsampling             : 4:2:0 Bit depth                      : 8 bits Scan type                      : Progressive Bits/(Pixel*Frame)             : 0.063 Stream size                    : 1.42 GiB (97%) Default                        : Yes Forced                         : No Color range                    : Limited Color primaries                : BT.709 Transfer characteristics       : BT.709 Matrix coefficients            : BT.709  Audio ID                             : 2 Format                         : AAC LC Format/Info                    : Advanced Audio Codec Low Complexity Codec ID                       : A_AAC-2 Duration                       : 51 min 34 s Bit rate                       : 125 kb/s Channel(s)                     : 2 channels Channel layout                 : L R Sampling rate                  : 48.0 kHz Frame rate                     : 46.875 FPS (1024 SPF) Compression mode               : Lossy Stream size                    : 46.2 MiB (3%) Language                       : Japanese Default                        : Yes Forced                         : No

會員專用連接: [MagicStar] 深深地恋爱! / 恋はDeepに! EP07 [WEBDL] [1080p] [HULU]【生】

Magnet連接: magnet:?xt=urn:btih:JOWJAJ5M2ZDB4CJO33QW6X2PPBPZQRNC

Magnet連接typeII: magnet:?xt=urn:btih:4bac9027acd6461e092edee16f5f4f785f9845a2

彈幕播放連接: ddplay:magnet:?xt=urn:btih:JOWJAJ5M2ZDB4CJO33QW6X2PPBPZQRNC 播放器官方下載地址

外部搜索連接: 從谷歌搜索資源種子


  • mkv[MagicStar] Koi wa Deep ni EP07 [WEBDL] [1080p] [HULU]/Koi.wa.Deep.ni.EP07.1080p.HULU.WEB-DL.AAC2.0.H.264-MagicStar.mkv 1.5GB

***查看評論*** 請注意評論內容可能包含劇透

Processed in 0.001 second(s), 2 queries
Powered by tedmind.com Version: 1.8.1