動漫花園資源網logo

 
 

會員頭像

發佈人:jackieliiy

訂閱發佈人:

發佈組LOGO

所屬發佈組:魔星字幕团

訂閱發佈組:

[MagicStar] Colorful Love ~无性别男孩热恋中。~ / カラフラブル ~ジェンダーレス男子に愛されています。~ EP09 [WEBDL] [1080p] [HULU]【生】

簡介: 

HD 1080p from HULU JAPAN.
alt text
alt text

General Unique ID                      : 100563103095314027688611923457527940442 (0x4BA7BFC8A237217E9E865864254E855A) Complete name                  : Colorful.Love.Genderless.Danshi.ni.Aisareteimasu.EP09.1080p.HULU.WEB-DL.AAC2.0.H.264-MagicStar.mkv Format                         : Matroska Format version                 : Version 4 File size                      : 1.22 GiB Duration                       : 43 min 1 s Overall bit rate               : 4 064 kb/s Encoded date                   : UTC 2021-05-28 19:58:50 Writing application            : mkvmerge v50.0.0 ('Awakenings') 64-bit Writing library                : libebml v1.4.0 + libmatroska v1.6.2 Cover                          : Yes Attachments                    : cover.png  Video ID                             : 1 Format                         : AVC Format/Info                    : Advanced Video Codec Format profile                 : [email protected] Format settings                : CABAC / 4 Ref Frames Format settings, CABAC         : Yes Format settings, Reference fra : 4 frames Codec ID                       : V_MPEG4/ISO/AVC Duration                       : 43 min 1 s Bit rate                       : 3 936 kb/s Width                          : 1 920 pixels Height                         : 1 080 pixels Display aspect ratio           : 16:9 Frame rate mode                : Constant Frame rate                     : 29.970 (29970/1000) FPS Original frame rate            : 29.970 (30000/1001) FPS Color space                    : YUV Chroma subsampling             : 4:2:0 Bit depth                      : 8 bits Scan type                      : Progressive Bits/(Pixel*Frame)             : 0.063 Stream size                    : 1.18 GiB (97%) Default                        : Yes Forced                         : No Color range                    : Limited Color primaries                : BT.709 Transfer characteristics       : BT.709 Matrix coefficients            : BT.709  Audio ID                             : 2 Format                         : AAC LC Format/Info                    : Advanced Audio Codec Low Complexity Codec ID                       : A_AAC-2 Duration                       : 43 min 1 s Bit rate                       : 125 kb/s Channel(s)                     : 2 channels Channel layout                 : L R Sampling rate                  : 48.0 kHz Frame rate                     : 46.875 FPS (1024 SPF) Compression mode               : Lossy Stream size                    : 38.6 MiB (3%) Language                       : Japanese Default                        : Yes Forced                         : No

會員專用連接: [MagicStar] Colorful Love ~无性别男孩热恋中。~ / カラフラブル ~ジェンダーレス男子に愛されています。~ EP09 [WEBDL] [1080p] [HULU]【生】

Magnet連接: magnet:?xt=urn:btih:GEHDHVDQDQ6TLFLYSIQLCRSX34FKLCQW

Magnet連接typeII: magnet:?xt=urn:btih:310e33d4701c3d3595789220b14657df0aa58a16

彈幕播放連接: ddplay:magnet:?xt=urn:btih:GEHDHVDQDQ6TLFLYSIQLCRSX34FKLCQW 播放器官方下載地址

外部搜索連接: 從谷歌搜索資源種子


  • mkv[MagicStar] Colorful Love ~Genderless Danshi ni Aisareteimasu.~ EP09 [WEBDL] [1080p] [HULU]/Colorful.Love.Genderless.Danshi.ni.Aisareteimasu.EP09.1080p.HULU.WEB-DL.AAC2.0.H.264-MagicStar.mkv 1.2GB

***查看評論*** 請注意評論內容可能包含劇透

Processed in 0.001 second(s), 2 queries
Powered by tedmind.com Version: 1.8.1