動漫花園資源網logo

 
 

會員頭像

發佈人:jackieliiy

訂閱發佈人:

發佈組LOGO

所屬發佈組:魔星字幕团

訂閱發佈組:

[MagicStar] 住住 第三季 / 住住 2021 EP06 [WEBDL] [1080p] [HULU]【生】【附日字】

簡介: 

HD 1080p from HULU JAPAN.
alt text
alt text

General Unique ID                      : 72442491842501478430750987122999356810 (0x367FEA9B0FBC1557654E7573F6FCED8A) Complete name                  : Sumu.Sumu.2021.EP06.1080p.HULU.WEB-DL.AAC2.0.H.264-MagicStar.mkv Format                         : Matroska Format version                 : Version 4 File size                      : 573 MiB Duration                       : 25 min 20 s Overall bit rate               : 3 161 kb/s Encoded date                   : UTC 2021-06-05 02:53:03 Writing application            : mkvmerge v50.0.0 ('Awakenings') 64-bit Writing library                : libebml v1.4.0 + libmatroska v1.6.2 Cover                          : Yes Attachments                    : cover.png  Video ID                             : 1 Format                         : AVC Format/Info                    : Advanced Video Codec Format profile                 : [email protected] Format settings                : CABAC / 4 Ref Frames Format settings, CABAC         : Yes Format settings, Reference fra : 4 frames Codec ID                       : V_MPEG4/ISO/AVC Duration                       : 25 min 20 s Bit rate                       : 3 032 kb/s Width                          : 1 920 pixels Height                         : 1 080 pixels Display aspect ratio           : 16:9 Frame rate mode                : Constant Frame rate                     : 29.970 (29970/1000) FPS Original frame rate            : 29.970 (30000/1001) FPS Color space                    : YUV Chroma subsampling             : 4:2:0 Bit depth                      : 8 bits Scan type                      : Progressive Bits/(Pixel*Frame)             : 0.049 Stream size                    : 550 MiB (96%) Default                        : Yes Forced                         : No Color range                    : Limited Color primaries                : BT.709 Transfer characteristics       : BT.709 Matrix coefficients            : BT.709  Audio ID                             : 2 Format                         : AAC LC Format/Info                    : Advanced Audio Codec Low Complexity Codec ID                       : A_AAC-2 Duration                       : 25 min 20 s Bit rate                       : 125 kb/s Channel(s)                     : 2 channels Channel layout                 : L R Sampling rate                  : 48.0 kHz Frame rate                     : 46.875 FPS (1024 SPF) Compression mode               : Lossy Stream size                    : 22.7 MiB (4%) Language                       : Japanese Default                        : Yes Forced                         : No

會員專用連接: [MagicStar] 住住 第三季 / 住住 2021 EP06 [WEBDL] [1080p] [HULU]【生】【附日字】

Magnet連接: magnet:?xt=urn:btih:DOP2FS3PJPYD4OKIOTT52Y5SPRAMWWXW

Magnet連接typeII: magnet:?xt=urn:btih:1b9fa2cb6f4bf03e394874e7dd63b27c40cb5af6

彈幕播放連接: ddplay:magnet:?xt=urn:btih:DOP2FS3PJPYD4OKIOTT52Y5SPRAMWWXW 播放器官方下載地址

外部搜索連接: 從谷歌搜索資源種子


  • mkv[MagicStar] Sumu Sumu 2021 EP06 [WEBDL] [1080p] [HULU] [JPN_SUB]/Sumu.Sumu.2021.EP06.1080p.HULU.WEB-DL.AAC2.0.H.264-MagicStar.mkv 573.1MB
  • srt[MagicStar] Sumu Sumu 2021 EP06 [WEBDL] [1080p] [HULU] [JPN_SUB]/Sumu.Sumu.2021.EP06.1080p.HULU.WEB-DL.AAC2.0.H.264-MagicStar.srt 47.8KB

***查看評論*** 請注意評論內容可能包含劇透

Processed in 0.001 second(s), 2 queries
Powered by tedmind.com Version: 1.8.1