動漫花園資源網logo

 
 

會員頭像

發佈人:LoliHouse

訂閱發佈人:

發佈組LOGO

所屬發佈組:LoliHouse

訂閱發佈組:

[神滨市立大学勇者部&LoliHouse] 魔法纪录 魔法少女小圆外传 第二季 -觉醒前夜- / Magia Record S2 [01-03][BDRip 1080p HEVC-10bit FLAC][简繁内封]

簡介: 

Poster

魔法纪录 魔法少女小圆外传 第二季 -觉醒前夜- / Magia Record: Puella Magi Madoka Magica Side Story 2nd Season - The Eve of Awakening / マギアレコード 魔法少女まどか☆マギカ外伝 2nd SEASON -覚醒前夜-


白羽:K027 @ 勇者部
黑羽:見崎かすみ @ 勇者部


所有的线条都会得到拯救。

魔法纪录第二季的原盘画质很好,大部分线条和纹理为原生1080p制作。然而,仍有部分线条存在细碎的锯齿。同时,画面存在明显的色带。(真是SHAFT的风格呢!)

魔纪的线条十分的细且锐,形成了非常鲜明的画风。我在处理时,将“在消除锯齿的同时保留原始观感"视为首要目标。具体来说:1)消除部分线条存在的细碎锯齿;2)保留原始的线条粗细;3)保留原始的线条锐度;4)保留原始的线条黑度。

在以往的后处理中,针对锯齿,大家通常会使用一些传统的手段。这些传统方法很多出现于标清时代,对于非原生1080p制作的大部分动画十分适用。然而,魔法纪录作为比较少见的原生1080p制作的动画,其线条细而锐利,并不适用传统的抗锯齿方法。对其进行传统的抗锯齿,会不可避免得导致难以补偿的线条变粗、锐度下降、黑度损失。

我在之前处理同为SHAFT制作的动画 突击莉莉时,深刻地感受到对类似情况的处理的不易,同时也积累了一些经验。在处理魔法纪录的线条时,我将侧重点转移到“保护观感",开始尝试一些新的方法和新的处理流程,额外注重细度锐度的保护和补偿。

结果证明这些新的尝试是有效的。对于存在锯齿的线条,经过处理后,线条的锯齿被消除,而细度、锐度、黑度、观感得到很好的保留。对于原本就没有锯齿的线条,在处理中完整地保留,与原盘相比不产生损失。

SourceTraditional MethodNew Method
原盘__________________________________________________传统方法__________________________________________________新方法


MediaInfo

General
Unique ID                                : 178985435097282212881115159728199911788 (0x86A75745A2B0145341FC45C5116D496C)
Complete name                            : W:\[Yusyabu&LoliHouse] Magia Record S2 - Vol.1 [BDRip 1080p HEVC-10bit FLAC]\[Yusyabu&LoliHouse] Magia Record S2 - 03 [BDRip 1080p HEVC-10bit FLAC].mkv
Format                                   : Matroska
Format version                           : Version 4
File size                                : 1.62 GiB
Duration                                 : 23 min 37 s
Overall bit rate mode                    : Variable
Overall bit rate                         : 9 838 kb/s
Movie name                               : 持ちきれないほどあったでしょ
Track name/Position                      : 3
Track name/Total                         : 8
Encoded date                             : UTC 2021-12-08 04:57:48
Writing application                      : mkvmerge v63.0.0 ('Everything') 64-bit
Writing library                          : libebml v1.4.2 + libmatroska v1.6.4
Attachments                              : 3c7f5dfa-a13f-416d-95bf-dbb71aeaf820-384.otf / 6c33fa83-443f-4731-908a-cf8d0b1e73a3-32.otf / 6e23def9-96f4-47f1-a36a-6af2f7fc7ce6-192.otf / 6f60de41-4940-40f9-a90f-e4f15148209c-384.otf / 6f60de41-4940-40f9-a90f-e4f15148209c-416.otf / 8a8a89e2-392e-4b0b-ab5a-2770a5331cf8-384.otf / 8a8a89e2-392e-4b0b-ab5a-2770a5331cf8-416.otf / 9d18675a-d956-45a6-9e3f-00bbd350c6ad-64.otf / 33d0a900-def9-41b4-8929-8208a7a94f22-384.otf / 90dab580-25fc-4179-969b-bd0eca316076-64.otf / 097daccd-47dc-42db-b585-5d29def561d8-32.otf / 98b65373-efcf-4142-9abb-f6baaf687ecf-384.otf / 194b65b9-3290-463b-af13-38a374429fd6-384.otf / 543dfbd8-e63d-49af-b88f-7fb9757230dd-32.otf / 29114aa5-fa68-4e3f-8fb2-d0fc04a0858d-384.otf / 60711fa9-1323-43aa-8091-ec410fec3d1c-384.otf / 74536b4c-5912-48cd-bb30-7905352e554c-384.otf / b4243450-9852-4468-837f-6defc9643960-384.otf / ba7ecd37-5614-4767-b2c2-612872bc9d01-384.otf / be44b60e-28ef-4f96-b3c7-e2d99b862b29-384.otf / c9e0a0e5-be3e-4e46-a35e-a50be3981593-64.otf / d8342f95-edc5-45d3-ba53-935d30de97b3-384.otf / d8342f95-edc5-45d3-ba53-935d30de97b3-416.otf / dce6d3a4-346d-4474-a447-9606ef45fccc-384.otf / e7fb93e5-6a21-4575-b3d0-3ba3ff8e96d9-384.otf
PRODUCTION_STUDIO                        : 神滨市立大学勇者部
Video
ID                                       : 1
Format                                   : HEVC
Format/Info                              : High Efficiency Video Coding
Format profile                           : Main [email protected]@High
Codec ID                                 : V_MPEGH/ISO/HEVC
Duration                                 : 23 min 37 s
Bit rate                                 : 8 196 kb/s
Width                                    : 1 920 pixels
Height                                   : 1 080 pixels
Display aspect ratio                     : 16:9
Frame rate mode                          : Constant
Frame rate                               : 23.976 (24000/1001) FPS
Color space                              : YUV
Chroma subsampling                       : 4:2:0
Bit depth                                : 10 bits
Bits/(Pixel*Frame)                       : 0.165
Stream size                              : 1.35 GiB (83%)
Writing library                          : x265 3.5g2b25c9ba0+93:[Windows][clang 12.0.1][64 bit] Kasumi 10bit
Encoding settings                        : --preset=slower / --ctu=32 / --crf=14 / --deblock=-1:-1 / --qcomp=0.7 / --pbratio=1.20 / --cbqpoffs=-2 / --crqpoffs=-2 / --aq-mode=3 / --min-keyint=1 / --keyint=720 / --rc-lookahead=80 / --merange=42 / --rdoq-level=1 / --psy-rd=2.5 / --psy-rdoq=0.5 / --no-sao / --no-rect / --no-amp / --no-open-gop / --no-strong-intra-smoothing / --qg-size=16 / --limit-tu=0 / --tu-inter-depth=4 / --tu-intra-depth=4 / --rdpenalty=1 / --tskip / --tskip-fast / --colormatrix=1 / --transfer=1 / --colorprim=1 / --range=limited / --vbv-maxrate=30000 / --level-idc=41 / --crf-max=18 / --min-luma=64 / --max-luma=940 / --vui-hrd-info / --qpfile=EP03.qpf / --output=EP03.encoded.hevc / --csv-log-level=2 / --csv=EP03.csv / --pools=8 / --frame-thread=1 / EP03.raw.mp4
Default                                  : Yes
Forced                                   : No
Color range                              : Limited
Color primaries                          : BT.709
Transfer characteristics                 : BT.709
Matrix coefficients                      : BT.709
Audio #1
ID                                       : 2
Format                                   : FLAC
Format/Info                              : Free Lossless Audio Codec
Codec ID                                 : A_FLAC
Duration                                 : 23 min 37 s
Bit rate mode                            : Variable
Bit rate                                 : 1 436 kb/s
Channel(s)                               : 2 channels
Channel layout                           : L R
Sampling rate                            : 48.0 kHz
Frame rate                               : 11.719 FPS (4096 SPF)
Bit depth                                : 24 bits
Compression mode                         : Lossless
Stream size                              : 243 MiB (15%)
Writing library                          : libFLAC 1.3.2 (UTC 2017-01-01)
Language                                 : Japanese
Default                                  : Yes
Forced                                   : No
Audio #2
ID                                       : 3
Format                                   : Opus
Codec ID                                 : A_OPUS
Duration                                 : 23 min 37 s
Bit rate                                 : 184 kb/s
Channel(s)                               : 2 channels
Channel layout                           : L R
Sampling rate                            : 48.0 kHz
Frame rate                               : 50.000 FPS (960 SPF)
Compression mode                         : Lossy
Stream size                              : 31.1 MiB (2%)
Language                                 : Japanese
Default                                  : No
Forced                                   : No
Text #1
ID                                       : 4
Format                                   : ASS
Codec ID                                 : S_TEXT/ASS
Codec ID/Info                            : Advanced Sub Station Alpha
Duration                                 : 23 min 24 s
Bit rate                                 : 147 b/s
Count of elements                        : 387
Compression mode                         : Lossless
Stream size                              : 25.2 KiB (0%)
Title                                    : 简体中文
Language                                 : Chinese
Default                                  : Yes
Forced                                   : No
Text #2
ID                                       : 5
Format                                   : ASS
Codec ID                                 : S_TEXT/ASS
Codec ID/Info                            : Advanced Sub Station Alpha
Duration                                 : 23 min 24 s
Bit rate                                 : 147 b/s
Count of elements                        : 387
Compression mode                         : Lossless
Stream size                              : 25.2 KiB (0%)
Title                                    : 繁體中文
Language                                 : Chinese
Default                                  : Yes
Forced                                   : No
Menu
00:00:00.000                             : ja:アバン
00:00:45.045                             : ja:オープニング
00:02:15.010                             : ja:Aパート
00:11:18.011                             : ja:Bパート
00:21:45.012                             : ja:エンディング
00:23:14.977                             : ja:Cパート

Screenshots: https://slow.pics/c/Zb3fF4ds




會員專用連接: [神滨市立大学勇者部&LoliHouse] 魔法纪录 魔法少女小圆外传 第二季 -觉醒前夜- / Magia Record S2 [01-03][BDRip 1080p HEVC-10bit FLAC][简繁内封]

Magnet連接: magnet:?xt=urn:btih:Z6LWMCIAWTJASSTV6SDONXXVJJJE5ZHU

Magnet連接typeII: magnet:?xt=urn:btih:cf97660900b4d2094a75f486e6def54a524ee4f4

PikPak載點: 保存至pikpak ?

彈幕播放連接: ddplay:magnet:?xt=urn:btih:Z6LWMCIAWTJASSTV6SDONXXVJJJE5ZHU 播放器官方下載地址

外部搜索連接: 從谷歌搜索資源種子


  • mkv[Yusyabu&LoliHouse] Magia Record S2 - Vol.1 [BDRip 1080p HEVC-10bit FLAC]/[Yusyabu&LoliHouse] Magia Record S2 - 01 [BDRip 1080p HEVC-10bit FLAC].mkv 1.7GB
  • mkv[Yusyabu&LoliHouse] Magia Record S2 - Vol.1 [BDRip 1080p HEVC-10bit FLAC]/[Yusyabu&LoliHouse] Magia Record S2 - 02 [BDRip 1080p HEVC-10bit FLAC].mkv 1.8GB
  • mkv[Yusyabu&LoliHouse] Magia Record S2 - Vol.1 [BDRip 1080p HEVC-10bit FLAC]/[Yusyabu&LoliHouse] Magia Record S2 - 03 [BDRip 1080p HEVC-10bit FLAC].mkv 1.6GB

***查看評論*** 請注意評論內容可能包含劇透

Processed in 0.001 second(s), 2 queries
Powered by tedmind.com Version: 1.8.1