動漫花園資源網logo

 
 

會員頭像

發佈人:jackieliiy

訂閱發佈人:

發佈組LOGO

所屬發佈組:魔星字幕团

訂閱發佈組:

[MagicStar] 驻在刑警 第三季 / 駐在刑事 Season3 EP01 [WEBDL] [1080p] [AMZN]【生】【附日字】

簡介: 

HD 1080p from Prime Video.
Japanese subtitles added.
alt text
alt text

General Unique ID                      : 225571616926050722142241849036500182097 (0xA9B3835EBA2B8ABAA179E2E030952451) Complete name                  : Chuzai.Keiji.S03EP01.1080p.AMZN.WEB-DL.DDP2.0.H.264-MagicStar.mkv Format                         : Matroska Format version                 : Version 4 File size                      : 3.97 GiB Duration                       : 1 h 27 min Overall bit rate               : 6 465 kb/s Encoded date                   : UTC 2022-01-21 23:00:43 Writing application            : mkvmerge v50.0.0 ('Awakenings') 64-bit Writing library                : libebml v1.4.0 + libmatroska v1.6.2 Cover                          : Yes Attachments                    : cover.png  Video ID                             : 1 Format                         : AVC Format/Info                    : Advanced Video Codec Format profile                 : [email protected] Format settings                : CABAC / 4 Ref Frames Format settings, CABAC         : Yes Format settings, Reference fra : 4 frames Codec ID                       : V_MPEG4/ISO/AVC Duration                       : 1 h 27 min Bit rate                       : 6 239 kb/s Width                          : 1 920 pixels Height                         : 1 080 pixels Display aspect ratio           : 16:9 Frame rate mode                : Constant Frame rate                     : 29.970 (29970/1000) FPS Original frame rate            : 29.970 (30000/1001) FPS Color space                    : YUV Chroma subsampling             : 4:2:0 Bit depth                      : 8 bits Scan type                      : Progressive Bits/(Pixel*Frame)             : 0.100 Stream size                    : 3.83 GiB (96%) Default                        : Yes Forced                         : No Color range                    : Limited Color primaries                : BT.709 Transfer characteristics       : BT.709 Matrix coefficients            : BT.709  Audio ID                             : 2 Format                         : E-AC-3 Format/Info                    : Enhanced AC-3 Commercial name                : Dolby Digital Plus Codec ID                       : A_EAC3 Duration                       : 1 h 27 min Bit rate mode                  : Constant Bit rate                       : 224 kb/s Channel(s)                     : 2 channels Channel layout                 : L R Sampling rate                  : 48.0 kHz Frame rate                     : 31.250 FPS (1536 SPF) Compression mode               : Lossy Stream size                    : 141 MiB (3%) Language                       : Japanese Service kind                   : Complete Main Default                        : Yes Forced                         : No

會員專用連接: [MagicStar] 驻在刑警 第三季 / 駐在刑事 Season3 EP01 [WEBDL] [1080p] [AMZN]【生】【附日字】

Magnet連接: magnet:?xt=urn:btih:NK3C5TFJDFIWXAHNAECEABZGJRAYYVBM

Magnet連接typeII: magnet:?xt=urn:btih:6ab62ecca919516b80ed01044007264c418c542c

PikPak載點: 保存至pikpak ?

彈幕播放連接: ddplay:magnet:?xt=urn:btih:NK3C5TFJDFIWXAHNAECEABZGJRAYYVBM 播放器官方下載地址

外部搜索連接: 從谷歌搜索資源種子


  • mkv[MagicStar] Chuzai Keiji Season3 EP01 [WEBDL] [1080p] [AMZN] [JPN_SUB]/Chuzai.Keiji.S03EP01.1080p.AMZN.WEB-DL.DDP2.0.H.264-MagicStar.mkv 4.0GB
  • srt[MagicStar] Chuzai Keiji Season3 EP01 [WEBDL] [1080p] [AMZN] [JPN_SUB]/Chuzai.Keiji.S03EP01.1080p.AMZN.WEB-DL.DDP2.0.H.264-MagicStar.srt 102.7KB

***查看評論*** 請注意評論內容可能包含劇透

Processed in 0.001 second(s), 2 queries
Powered by tedmind.com Version: 1.8.1