動漫花園資源網logo

 
 

會員頭像

發佈人:jackieliiy

訂閱發佈人:

發佈組LOGO

所屬發佈組:魔星字幕团

訂閱發佈組:

[MagicStar] #新干线小酒馆 / #居酒屋新幹線 EP06 [WEBDL] [1080p] [HULU]【生】【附日字】

簡介: 

HD 1080p from HULU JAPAN.
alt text
alt text

General Unique ID                      : 1438617756300169950489708404328253955 (0x1151154E356097030D727982C3A4A03) Complete name                  : Izakaya.Shinkansen.EP06.1080p.HULU.WEB-DL.AAC2.0.H.264-MagicStar.mkv Format                         : Matroska Format version                 : Version 4 File size                      : 657 MiB Duration                       : 23 min 57 s Overall bit rate               : 3 837 kb/s Encoded date                   : UTC 2022-01-26 11:20:50 Writing application            : mkvmerge v50.0.0 ('Awakenings') 64-bit Writing library                : libebml v1.4.0 + libmatroska v1.6.2 Cover                          : Yes Attachments                    : cover.png  Video ID                             : 1 Format                         : AVC Format/Info                    : Advanced Video Codec Format profile                 : [email protected] Format settings                : CABAC / 4 Ref Frames Format settings, CABAC         : Yes Format settings, Reference fra : 4 frames Codec ID                       : V_MPEG4/ISO/AVC Duration                       : 23 min 57 s Bit rate                       : 3 708 kb/s Width                          : 1 920 pixels Height                         : 1 080 pixels Display aspect ratio           : 16:9 Frame rate mode                : Constant Frame rate                     : 29.970 (29970/1000) FPS Original frame rate            : 29.970 (30000/1001) FPS Color space                    : YUV Chroma subsampling             : 4:2:0 Bit depth                      : 8 bits Scan type                      : Progressive Bits/(Pixel*Frame)             : 0.060 Stream size                    : 635 MiB (97%) Writing library                : x264 core 148 r2638 7599210 Encoding settings              : cabac=1 / ref=3 / deblock=1:0:0 / analyse=0x3:0x113 / me=umh / subme=8 / psy=1 / psy_rd=1.00:0.00 / mixed_ref=0 / me_range=16 / chroma_me=1 / trellis=2 / 8x8dct=1 / cqm=0 / deadzone=21,11 / fast_pskip=1 / chroma_qp_offset=-2 / threads=24 / lookahead_threads=4 / sliced_threads=0 / nr=0 / decimate=1 / interlaced=0 / bluray_compat=0 / constrained_intra=0 / bframes=3 / b_pyramid=2 / b_adapt=2 / b_bias=0 / direct=3 / weightb=1 / open_gop=0 / weightp=2 / keyint=300 / keyint_min=29 / scenecut=40 / intra_refresh=0 / rc_lookahead=40 / rc=crf / mbtree=1 / crf=21.0 / qcomp=0.60 / qpmin=0 / qpmax=69 / qpstep=4 / ip_ratio=1.40 / aq=1:1.00 Default                        : Yes Forced                         : No  Audio ID                             : 2 Format                         : AAC LC Format/Info                    : Advanced Audio Codec Low Complexity Codec ID                       : A_AAC-2 Duration                       : 23 min 57 s Bit rate                       : 125 kb/s Channel(s)                     : 2 channels Channel layout                 : L R Sampling rate                  : 48.0 kHz Frame rate                     : 46.875 FPS (1024 SPF) Compression mode               : Lossy Stream size                    : 21.5 MiB (3%) Language                       : Japanese Default                        : Yes Forced                         : No

會員專用連接: [MagicStar] #新干线小酒馆 / #居酒屋新幹線 EP06 [WEBDL] [1080p] [HULU]【生】【附日字】

Magnet連接: magnet:?xt=urn:btih:R2KIXZWQJGM7MTVHTVAR2XLFPAWWBSQJ

Magnet連接typeII: magnet:?xt=urn:btih:8e948be6d04999f64ea79d411d5d65782d60ca09

PikPak載點: 保存至pikpak ?

彈幕播放連接: ddplay:magnet:?xt=urn:btih:R2KIXZWQJGM7MTVHTVAR2XLFPAWWBSQJ 播放器官方下載地址

外部搜索連接: 從谷歌搜索資源種子


  • mkv[MagicStar] #Izakaya Shinkansen EP06 [WEBDL] [1080p] [HULU] [JPN_SUB]/Izakaya.Shinkansen.EP06.1080p.HULU.WEB-DL.AAC2.0.H.264-MagicStar.mkv 657.3MB
  • srt[MagicStar] #Izakaya Shinkansen EP06 [WEBDL] [1080p] [HULU] [JPN_SUB]/Izakaya.Shinkansen.EP06.1080p.HULU.WEB-DL.AAC2.0.H.264-MagicStar.srt 20.6KB

***查看評論*** 請注意評論內容可能包含劇透

Processed in 0.001 second(s), 2 queries
Powered by tedmind.com Version: 1.8.1