動漫花園資源網logo

 
 

會員頭像

發佈人:jackieliiy

訂閱發佈人:

發佈組LOGO

所屬發佈組:魔星字幕团

訂閱發佈組:

【日影】[MagicStar] 钓鱼迷日记特别版 / 釣りバカ日誌スペシャル 1994 [WEBDL] [1080p] [AMZN]【生】【附日字】

簡介: 

HD 1080p from Prime Video. Blu-ray Disc not released.
Japanese subtitles added.
alt text
alt text

General Unique ID                      : 64100805394553009982125061871304279498 (0x30395DB5E730C795B68DC0C6044185CA) Complete name                  : Tsuri.Baka.Nisshi.Special.1994.1080p.AMZN.WEB-DL.DDP2.0.H.264-MagicStar.mkv Format                         : Matroska Format version                 : Version 4 File size                      : 9.29 GiB Duration                       : 1 h 45 min Overall bit rate               : 12.6 Mb/s Encoded date                   : UTC 2022-01-25 21:28:28 Writing application            : mkvmerge v50.0.0 ('Awakenings') 64-bit Writing library                : libebml v1.4.0 + libmatroska v1.6.2 Cover                          : Yes Attachments                    : cover.png  Video ID                             : 1 Format                         : AVC Format/Info                    : Advanced Video Codec Format profile                 : [email protected] Format settings                : CABAC / 4 Ref Frames Format settings, CABAC         : Yes Format settings, Reference fra : 4 frames Codec ID                       : V_MPEG4/ISO/AVC Duration                       : 1 h 45 min Bit rate                       : 12.3 Mb/s Width                          : 1 920 pixels Height                         : 800 pixels Display aspect ratio           : 2.40:1 Frame rate mode                : Constant Frame rate                     : 23.976 (24000/1001) FPS Color space                    : YUV Chroma subsampling             : 4:2:0 Bit depth                      : 8 bits Scan type                      : Progressive Bits/(Pixel*Frame)             : 0.335 Stream size                    : 9.12 GiB (98%) Default                        : Yes Forced                         : No Color range                    : Limited Color primaries                : BT.709 Transfer characteristics       : BT.709 Matrix coefficients            : BT.709  Audio ID                             : 2 Format                         : E-AC-3 Format/Info                    : Enhanced AC-3 Commercial name                : Dolby Digital Plus Codec ID                       : A_EAC3 Duration                       : 1 h 45 min Bit rate mode                  : Constant Bit rate                       : 224 kb/s Channel(s)                     : 2 channels Channel layout                 : L R Sampling rate                  : 48.0 kHz Frame rate                     : 31.250 FPS (1536 SPF) Compression mode               : Lossy Stream size                    : 170 MiB (2%) Language                       : Japanese Service kind                   : Complete Main Default                        : Yes Forced                         : No

會員專用連接: 【日影】[MagicStar] 钓鱼迷日记特别版 / 釣りバカ日誌スペシャル 1994 [WEBDL] [1080p] [AMZN]【生】【附日字】

Magnet連接: magnet:?xt=urn:btih:T63XWRZPWFYN7CCQBBFJTL3WDVL4GEWX

Magnet連接typeII: magnet:?xt=urn:btih:9fb77b472fb170df8850084a99af761d57c312d7

PikPak載點: 保存至pikpak ?

彈幕播放連接: ddplay:magnet:?xt=urn:btih:T63XWRZPWFYN7CCQBBFJTL3WDVL4GEWX 播放器官方下載地址

外部搜索連接: 從谷歌搜索資源種子


  • mkv[MagicStar] Tsuri Baka Nisshi Special 1994 [WEBDL] [1080p] [AMZN] [JPN_SUB]/Tsuri.Baka.Nisshi.Special.1994.1080p.AMZN.WEB-DL.DDP2.0.H.264-MagicStar.mkv 9.3GB
  • srt[MagicStar] Tsuri Baka Nisshi Special 1994 [WEBDL] [1080p] [AMZN] [JPN_SUB]/Tsuri.Baka.Nisshi.Special.1994.1080p.AMZN.WEB-DL.DDP2.0.H.264-MagicStar.srt 157.8KB

***查看評論*** 請注意評論內容可能包含劇透

Processed in 0.001 second(s), 2 queries
Powered by tedmind.com Version: 1.8.1