動漫花園資源網logo

 
 

會員頭像

發佈人:jackieliiy

訂閱發佈人:

發佈組LOGO

所屬發佈組:魔星字幕团

訂閱發佈組:

[MagicStar] 猫房屋 / ねこ物件 EP09 [WEBDL] [1080p] [AMZN]【生】

簡介: 

HD 1080p from Prime Video.
Use CBR bitrate mode.
alt text
alt text

General Unique ID                      : 7315466225360523712773747183680541768 (0x580E854F03CB40515A564B6FC3CD448) Complete name                  : Neko.Bukken.EP09.1080p.AMZN.WEB-DL.DDP2.0.H.264-MagicStar.mkv Format                         : Matroska Format version                 : Version 4 File size                      : 1.13 GiB Duration                       : 23 min 24 s Overall bit rate mode          : Constant Overall bit rate               : 6 905 kb/s Encoded date                   : UTC 2022-06-18 13:06:52 Writing application            : mkvmerge v50.0.0 ('Awakenings') 64-bit Writing library                : libebml v1.4.0 + libmatroska v1.6.2 Cover                          : Yes Attachments                    : cover.png  Video ID                             : 1 Format                         : AVC Format/Info                    : Advanced Video Codec Format profile                 : [email protected] Format settings                : CABAC / 4 Ref Frames Format settings, CABAC         : Yes Format settings, Reference fra : 4 frames Codec ID                       : V_MPEG4/ISO/AVC Duration                       : 23 min 24 s Bit rate mode                  : Constant Bit rate                       : 6 665 kb/s Nominal bit rate               : 10 000 kb/s Width                          : 1 920 pixels Height                         : 1 080 pixels Display aspect ratio           : 16:9 Frame rate mode                : Constant Frame rate                     : 23.976 (24000/1001) FPS Color space                    : YUV Chroma subsampling             : 4:2:0 Bit depth                      : 8 bits Scan type                      : Progressive Bits/(Pixel*Frame)             : 0.134 Stream size                    : 1.09 GiB (97%) Default                        : Yes Forced                         : No Color range                    : Limited Color primaries                : BT.709 Transfer characteristics       : BT.709 Matrix coefficients            : BT.709  Audio ID                             : 2 Format                         : E-AC-3 Format/Info                    : Enhanced AC-3 Commercial name                : Dolby Digital Plus Codec ID                       : A_EAC3 Duration                       : 23 min 24 s Bit rate mode                  : Constant Bit rate                       : 224 kb/s Channel(s)                     : 2 channels Channel layout                 : L R Sampling rate                  : 48.0 kHz Frame rate                     : 31.250 FPS (1536 SPF) Compression mode               : Lossy Stream size                    : 37.5 MiB (3%) Language                       : Japanese Service kind                   : Complete Main Default                        : Yes Forced                         : No

會員專用連接: [MagicStar] 猫房屋 / ねこ物件 EP09 [WEBDL] [1080p] [AMZN]【生】

Magnet連接: magnet:?xt=urn:btih:USKVK6G3HTPW354Y44ZZDOIHG42Y6GMP

Magnet連接typeII: magnet:?xt=urn:btih:a4955578db3cdf6df798e73391b90737358f198f

PikPak載點: 保存至pikpak ?

彈幕播放連接: ddplay:magnet:?xt=urn:btih:USKVK6G3HTPW354Y44ZZDOIHG42Y6GMP 播放器官方下載地址

外部搜索連接: 從谷歌搜索資源種子


  • mkv[MagicStar] Neko Bukken EP09 [WEBDL] [1080p] [AMZN]/Neko.Bukken.EP09.1080p.AMZN.WEB-DL.DDP2.0.H.264-MagicStar.mkv 1.1GB

***查看評論*** 請注意評論內容可能包含劇透

Processed in 0.001 second(s), 2 queries
Powered by tedmind.com Version: 1.8.1