動漫花園資源網logo

 
 

會員頭像

發佈人:jackieliiy

訂閱發佈人:

發佈組LOGO

所屬發佈組:魔星字幕团

訂閱發佈組:

【2022日影】[MagicStar] 鸢 / とんび [WEBDL] [1080p] [AMZN]【生】

簡介: 

HD 1080p from Prime Video.
Use CBR bitrate mode.

alt text
alt text

General Unique ID                      : 231325022590696301930759020429857438941 (0xAE07942B89E721C58487DF0BFE52BCDD) Complete name                  : Tonbi.2022.1080p.AMZN.WEB-DL.DDP5.1.H.264-MagicStar.mkv Format                         : Matroska Format version                 : Version 4 File size                      : 8.84 GiB Duration                       : 2 h 19 min Overall bit rate mode          : Constant Overall bit rate               : 9 090 kb/s Encoded date                   : UTC 2022-08-05 11:00:32 Writing application            : mkvmerge v50.0.0 ('Awakenings') 64-bit Writing library                : libebml v1.4.0 + libmatroska v1.6.2 Cover                          : Yes Attachments                    : cover.png  Video ID                             : 1 Format                         : AVC Format/Info                    : Advanced Video Codec Format profile                 : [email protected] Format settings                : CABAC / 4 Ref Frames Format settings, CABAC         : Yes Format settings, Reference fra : 4 frames Codec ID                       : V_MPEG4/ISO/AVC Duration                       : 2 h 19 min Bit rate mode                  : Constant Bit rate                       : 8 448 kb/s Nominal bit rate               : 10 000 kb/s Width                          : 1 920 pixels Height                         : 1 040 pixels Display aspect ratio           : 1.85:1 Frame rate mode                : Constant Frame rate                     : 23.976 (24000/1001) FPS Color space                    : YUV Chroma subsampling             : 4:2:0 Bit depth                      : 8 bits Scan type                      : Progressive Bits/(Pixel*Frame)             : 0.176 Stream size                    : 8.22 GiB (93%) Default                        : Yes Forced                         : No Color range                    : Limited Color primaries                : BT.709 Transfer characteristics       : BT.709 Matrix coefficients            : BT.709  Audio ID                             : 2 Format                         : E-AC-3 Format/Info                    : Enhanced AC-3 Commercial name                : Dolby Digital Plus Codec ID                       : A_EAC3 Duration                       : 2 h 19 min Bit rate mode                  : Constant Bit rate                       : 640 kb/s Channel(s)                     : 6 channels Channel layout                 : L R C LFE Ls Rs Sampling rate                  : 48.0 kHz Frame rate                     : 31.250 FPS (1536 SPF) Compression mode               : Lossy Stream size                    : 638 MiB (7%) Language                       : Japanese Service kind                   : Complete Main Default                        : Yes Forced                         : No

會員專用連接: 【2022日影】[MagicStar] 鸢 / とんび [WEBDL] [1080p] [AMZN]【生】

Magnet連接: magnet:?xt=urn:btih:4WMIHJKJ653CIDLROOMY3A4A4AZVYL6O

Magnet連接typeII: magnet:?xt=urn:btih:e59883a549f776240d7173998d8380e0335c2fce

PikPak載點: 保存至pikpak ?

彈幕播放連接: ddplay:magnet:?xt=urn:btih:4WMIHJKJ653CIDLROOMY3A4A4AZVYL6O 播放器官方下載地址

外部搜索連接: 從谷歌搜索資源種子


  • mkv[MagicStar] Tonbi 2022 [WEBDL] [1080p] [AMZN]/Tonbi.2022.1080p.AMZN.WEB-DL.DDP5.1.H.264-MagicStar.mkv 8.8GB

***查看評論*** 請注意評論內容可能包含劇透

Processed in 0.001 second(s), 2 queries
Powered by tedmind.com Version: 1.8.1