動漫花園資源網logo

 
 

會員頭像

發佈人:jackieliiy

訂閱發佈人:

發佈組LOGO

所屬發佈組:魔星字幕团

訂閱發佈組:

【2021日影】[MagicStar] 哀愁灰姑娘 / 哀愁しんでれら [WEBDL] [1080p] [AMZN]【生】【附日字】

簡介: 

HD 1080p from Prime Video.
Use CBR bitrate mode. Japanese subtitles added.

alt text

alt text

General Unique ID                      : 148669573885934859064081615640567350975 (0x6FD8B7EA26D5342492101A14AA0206BF) Complete name                  : Aishuu.Cinderella.2021.1080p.AMZN.WEB-DL.DDP5.1.H.264-MagicStar.mkv Format                         : Matroska Format version                 : Version 4 File size                      : 7.53 GiB Duration                       : 1 h 54 min Overall bit rate mode          : Constant Overall bit rate               : 9 376 kb/s Encoded date                   : UTC 2022-08-05 12:12:24 Writing application            : mkvmerge v50.0.0 ('Awakenings') 64-bit Writing library                : libebml v1.4.0 + libmatroska v1.6.2 Cover                          : Yes Attachments                    : cover.png  Video ID                             : 1 Format                         : AVC Format/Info                    : Advanced Video Codec Format profile                 : [email protected] Format settings                : CABAC / 4 Ref Frames Format settings, CABAC         : Yes Format settings, Reference fra : 4 frames Codec ID                       : V_MPEG4/ISO/AVC Duration                       : 1 h 54 min Bit rate mode                  : Constant Bit rate                       : 8 733 kb/s Nominal bit rate               : 10 000 kb/s Width                          : 1 920 pixels Height                         : 800 pixels Display aspect ratio           : 2.40:1 Frame rate mode                : Constant Frame rate                     : 23.976 (24000/1001) FPS Color space                    : YUV Chroma subsampling             : 4:2:0 Bit depth                      : 8 bits Scan type                      : Progressive Bits/(Pixel*Frame)             : 0.237 Stream size                    : 7.01 GiB (93%) Default                        : Yes Forced                         : No Color range                    : Limited Color primaries                : BT.709 Transfer characteristics       : BT.709 Matrix coefficients            : BT.709  Audio ID                             : 2 Format                         : E-AC-3 Format/Info                    : Enhanced AC-3 Commercial name                : Dolby Digital Plus Codec ID                       : A_EAC3 Duration                       : 1 h 54 min Bit rate mode                  : Constant Bit rate                       : 640 kb/s Channel(s)                     : 6 channels Channel layout                 : L R C LFE Ls Rs Sampling rate                  : 48.0 kHz Frame rate                     : 31.250 FPS (1536 SPF) Compression mode               : Lossy Stream size                    : 526 MiB (7%) Language                       : Japanese Service kind                   : Complete Main Default                        : Yes Forced                         : No

會員專用連接: 【2021日影】[MagicStar] 哀愁灰姑娘 / 哀愁しんでれら [WEBDL] [1080p] [AMZN]【生】【附日字】

Magnet連接: magnet:?xt=urn:btih:HM7HL7CB66NCB447BY7KV5ASDKDPCWXR

Magnet連接typeII: magnet:?xt=urn:btih:3b3e75fc41f79a20f39f0e3eaaf4121a86f15af1

PikPak載點: 保存至pikpak ?

彈幕播放連接: ddplay:magnet:?xt=urn:btih:HM7HL7CB66NCB447BY7KV5ASDKDPCWXR 播放器官方下載地址

外部搜索連接: 從谷歌搜索資源種子


  • mkv[MagicStar] Aishuu Cinderella 2021 [WEBDL] [1080p] [AMZN] [JPN_SUB]/Aishuu.Cinderella.2021.1080p.AMZN.WEB-DL.DDP5.1.H.264-MagicStar.mkv 7.5GB
  • srt[MagicStar] Aishuu Cinderella 2021 [WEBDL] [1080p] [AMZN] [JPN_SUB]/Aishuu.Cinderella.2021.1080p.AMZN.WEB-DL.DDP5.1.H.264-MagicStar.srt 99.4KB

***查看評論*** 請注意評論內容可能包含劇透

Processed in 0.001 second(s), 2 queries
Powered by tedmind.com Version: 1.8.1