動漫花園資源網logo

 
 

會員頭像

發佈人:jackieliiy

訂閱發佈人:

發佈組LOGO

所屬發佈組:魔星字幕团

訂閱發佈組:

[MagicStar] 线人 / インフォーマ EP01 [WEBDL] [1080p] [Netflix]【生】【附日字】

簡介: 

HD 1080p from Netflix.
Japanese subtitles added.
alt text
alt text

General Unique ID                      : 25182856014926388592101534384741633440 (0x12F20AA978C581EF64FFA827B6C34DA0) Complete name                  : Informa.EP01.1080p.NF.WEB-DL.DDP2.0.H.264-MagicStar.mkv Format                         : Matroska Format version                 : Version 4 File size                      : 678 MiB Duration                       : 23 min 28 s Overall bit rate mode          : Variable Overall bit rate               : 4 037 kb/s Encoded date                   : UTC 2023-01-14 02:57:21 Writing application            : mkvmerge v50.0.0 ('Awakenings') 64-bit Writing library                : libebml v1.4.0 + libmatroska v1.6.2 Cover                          : Yes Attachments                    : cover.png  Video ID                             : 1 Format                         : AVC Format/Info                    : Advanced Video Codec Format profile                 : [email protected] Format settings                : CABAC / 3 Ref Frames Format settings, CABAC         : Yes Format settings, Reference fra : 3 frames Codec ID                       : V_MPEG4/ISO/AVC Duration                       : 23 min 28 s Bit rate mode                  : Variable Bit rate                       : 3 907 kb/s Nominal bit rate               : 3 401 kb/s Maximum bit rate               : 5 590 kb/s Width                          : 1 920 pixels Height                         : 1 080 pixels Display aspect ratio           : 16:9 Frame rate mode                : Constant Frame rate                     : 23.976 (24000/1001) FPS Color space                    : YUV Chroma subsampling             : 4:2:0 Bit depth                      : 8 bits Scan type                      : Progressive Bits/(Pixel*Frame)             : 0.079 Stream size                    : 656 MiB (97%) Writing library                : x264 core 148 r2727 7d026e8 Encoding settings              : cabac=1 / ref=3 / deblock=1:0:0 / analyse=0x1:0x111 / me=umh / subme=10 / psy=1 / psy_rd=1.00:0.00 / mixed_ref=1 / me_range=24 / chroma_me=1 / trellis=2 / 8x8dct=0 / cqm=0 / deadzone=21,11 / fast_pskip=1 / chroma_qp_offset=-2 / threads=6 / lookahead_threads=1 / sliced_threads=0 / nr=0 / decimate=1 / interlaced=0 / bluray_compat=0 / stitchable=1 / constrained_intra=0 / bframes=2 / b_pyramid=0 / b_adapt=2 / b_bias=0 / direct=3 / weightb=1 / open_gop=0 / weightp=2 / keyint=240 / keyint_min=121 / scenecut=0 / intra_refresh=0 / rc_lookahead=48 / rc=2pass / mbtree=1 / bitrate=3401 / ratetol=1.0 / qcomp=0.50 / qpmin=6 / qpmax=51 / qpstep=4 / cplxblur=20.0 / qblur=0.5 / vbv_maxrate=5590 / vbv_bufsize=9316 / nal_hrd=vbr / filler=0 / ip_ratio=1.40 / aq=1:1.00 Default                        : Yes Forced                         : No  Audio ID                             : 2 Format                         : E-AC-3 Format/Info                    : Enhanced AC-3 Commercial name                : Dolby Digital Plus Codec ID                       : A_EAC3 Duration                       : 23 min 28 s Bit rate mode                  : Constant Bit rate                       : 128 kb/s Channel(s)                     : 2 channels Channel layout                 : L R Sampling rate                  : 48.0 kHz Frame rate                     : 31.250 FPS (1536 SPF) Compression mode               : Lossy Stream size                    : 21.5 MiB (3%) Language                       : Japanese Service kind                   : Complete Main Default                        : Yes Forced                         : No

會員專用連接: [MagicStar] 线人 / インフォーマ EP01 [WEBDL] [1080p] [Netflix]【生】【附日字】

Magnet連接: magnet:?xt=urn:btih:L7EQI4AHM3D3DDMYVGPZGTMCTB5QMMES

Magnet連接typeII: magnet:?xt=urn:btih:5fc904700766c7b18d98a99f934d82987b063092

PikPak載點: 保存至pikpak ?

彈幕播放連接: ddplay:magnet:?xt=urn:btih:L7EQI4AHM3D3DDMYVGPZGTMCTB5QMMES 播放器官方下載地址

外部搜索連接: 從谷歌搜索資源種子


  • mkv[MagicStar] INFORMA EP01 [WEBDL] [1080p] [Netflix] [JPN_SUB]/Informa.EP01.1080p.NF.WEB-DL.DDP2.0.H.264-MagicStar.mkv 677.8MB
  • srt[MagicStar] INFORMA EP01 [WEBDL] [1080p] [Netflix] [JPN_SUB]/Informa.EP01.1080p.NF.WEB-DL.DDP2.0.H.264-MagicStar.srt 23.3KB

***查看評論*** 請注意評論內容可能包含劇透

Processed in 0.001 second(s), 2 queries
Powered by tedmind.com Version: 1.8.1