動漫花園資源網logo

 
 

會員頭像

發佈人:jackieliiy

訂閱發佈人:

發佈組LOGO

所屬發佈組:魔星字幕团

訂閱發佈組:

[MagicStar] 三千日元的用法 / 三千円の使いかた EP02 [WEBDL] [1080p] [FOD]【生】【附日字】

簡介: 

HD 1080p from FOD.
Japanese subtitles added.
alt text
alt text

General Unique ID                      : 326776998970914626162997048859249868736 (0xF5D6F5F36AE9412E39D2594759D3FFC0) Complete name                  : 3000.Yen.no.Tsukaikata.EP02.1080p.FOD.WEB-DL.AAC2.0.H.264-MagicStar.mkv Format                         : Matroska Format version                 : Version 4 File size                      : 1.67 GiB Duration                       : 44 min 5 s Overall bit rate mode          : Variable Overall bit rate               : 5 409 kb/s Encoded date                   : UTC 2023-01-14 17:32:46 Writing application            : mkvmerge v50.0.0 ('Awakenings') 64-bit Writing library                : libebml v1.4.0 + libmatroska v1.6.2  Video ID                             : 1 Format                         : AVC Format/Info                    : Advanced Video Codec Format profile                 : [email protected] Format settings                : CABAC / 2 Ref Frames Format settings, CABAC         : Yes Format settings, Reference fra : 2 frames Codec ID                       : V_MPEG4/ISO/AVC Duration                       : 44 min 5 s Bit rate mode                  : Variable Bit rate                       : 5 214 kb/s Maximum bit rate               : 15.0 Mb/s Width                          : 1 920 pixels Height                         : 1 080 pixels Display aspect ratio           : 16:9 Frame rate mode                : Constant Frame rate                     : 29.970 (29970/1000) FPS Original frame rate            : 29.970 (30000/1001) FPS Color space                    : YUV Chroma subsampling             : 4:2:0 Bit depth                      : 8 bits Scan type                      : Progressive Bits/(Pixel*Frame)             : 0.084 Stream size                    : 1.61 GiB (96%) Default                        : Yes Forced                         : No Color range                    : Limited Color primaries                : BT.709 Transfer characteristics       : BT.709 Matrix coefficients            : BT.709  Audio ID                             : 2 Format                         : AAC LC Format/Info                    : Advanced Audio Codec Low Complexity Codec ID                       : A_AAC-2 Duration                       : 44 min 5 s Bit rate                       : 192 kb/s Channel(s)                     : 2 channels Channel layout                 : L R Sampling rate                  : 48.0 kHz Frame rate                     : 46.875 FPS (1024 SPF) Compression mode               : Lossy Stream size                    : 60.5 MiB (4%) Language                       : Japanese Default                        : Yes Forced                         : No

會員專用連接: [MagicStar] 三千日元的用法 / 三千円の使いかた EP02 [WEBDL] [1080p] [FOD]【生】【附日字】

Magnet連接: magnet:?xt=urn:btih:TENW5I627JK3APQ2RZCO5FZNMGGX7CZN

Magnet連接typeII: magnet:?xt=urn:btih:991b6ea3dafa55b03e1a8e44ee972d618d7f8b2d

PikPak載點: 保存至pikpak ?

彈幕播放連接: ddplay:magnet:?xt=urn:btih:TENW5I627JK3APQ2RZCO5FZNMGGX7CZN 播放器官方下載地址

外部搜索連接: 從谷歌搜索資源種子


  • mkv[MagicStar] 3000-Yen no Tsukaikata EP02 [WEBDL] [1080p] [FOD] [JPN_SUB]/3000.Yen.no.Tsukaikata.EP02.1080p.FOD.WEB-DL.AAC2.0.H.264-MagicStar.mkv 1.7GB
  • srt[MagicStar] 3000-Yen no Tsukaikata EP02 [WEBDL] [1080p] [FOD] [JPN_SUB]/3000.Yen.no.Tsukaikata.EP02.1080p.FOD.WEB-DL.AAC2.0.H.264-MagicStar.srt 57.9KB

***查看評論*** 請注意評論內容可能包含劇透

Processed in 0.001 second(s), 2 queries
Powered by tedmind.com Version: 1.8.1