動漫花園資源網logo

 
 

會員頭像

發佈人:jackieliiy

訂閱發佈人:

發佈組LOGO

所屬發佈組:魔星字幕团

訂閱發佈組:

[MagicStar] 戴卡奥特曼 / ウルトラマンデッカー EP23 [WEBDL] [1080p] [AMZN]【生】

簡介: 

HD 1080p from Prime Video.
Use CBR bitrate mode.


We are planning to upload all prime video japan Dramas and Movies, we need your Support!


Support Us

Ali (Zhifubao / QR code): https://i.ibb.co/FWV2ggm/1660626347125.png
PayPalMe: https://www.paypal.com/paypalme/sakuragikenji


alt text
alt text

General Unique ID                      : 67323232598575869425447591337559377535 (0x32A5FBA35CA3F2E3CF224DFB60E8C67F) Complete name                  : Ultraman.Decker.EP23.1080p.AMZN.WEB-DL.DDP2.0.H.264-MagicStar.mkv Format                         : Matroska Format version                 : Version 4 File size                      : 1.57 GiB Duration                       : 24 min 15 s Overall bit rate mode          : Constant Overall bit rate               : 9 281 kb/s Encoded date                   : UTC 2023-01-02 06:18:37 Writing application            : mkvmerge v50.0.0 ('Awakenings') 64-bit Writing library                : libebml v1.4.0 + libmatroska v1.6.2 Cover                          : Yes Attachments                    : cover.png  Video ID                             : 1 Format                         : AVC Format/Info                    : Advanced Video Codec Format profile                 : [email protected] Format settings                : CABAC / 4 Ref Frames Format settings, CABAC         : Yes Format settings, Reference fra : 4 frames Codec ID                       : V_MPEG4/ISO/AVC Duration                       : 24 min 15 s Bit rate mode                  : Constant Bit rate                       : 9 044 kb/s Nominal bit rate               : 10 000 kb/s Width                          : 1 920 pixels Height                         : 1 080 pixels Display aspect ratio           : 16:9 Frame rate mode                : Constant Frame rate                     : 23.976 (24000/1001) FPS Color space                    : YUV Chroma subsampling             : 4:2:0 Bit depth                      : 8 bits Scan type                      : Progressive Bits/(Pixel*Frame)             : 0.182 Stream size                    : 1.53 GiB (97%) Default                        : Yes Forced                         : No Color range                    : Limited Color primaries                : BT.709 Transfer characteristics       : BT.709 Matrix coefficients            : BT.709  Audio ID                             : 2 Format                         : E-AC-3 Format/Info                    : Enhanced AC-3 Commercial name                : Dolby Digital Plus Codec ID                       : A_EAC3 Duration                       : 24 min 15 s Bit rate mode                  : Constant Bit rate                       : 224 kb/s Channel(s)                     : 2 channels Channel layout                 : L R Sampling rate                  : 48.0 kHz Frame rate                     : 31.250 FPS (1536 SPF) Compression mode               : Lossy Stream size                    : 38.9 MiB (2%) Language                       : Japanese Service kind                   : Complete Main Default                        : Yes Forced                         : No

會員專用連接: [MagicStar] 戴卡奥特曼 / ウルトラマンデッカー EP23 [WEBDL] [1080p] [AMZN]【生】

Magnet連接: magnet:?xt=urn:btih:GNHNZDV3RW2H2SMI6UCDKZQMKIQUDLK5

Magnet連接typeII: magnet:?xt=urn:btih:334edc8ebb8db47d4988f50435660c522141ad5d

PikPak載點: 保存至pikpak ?

彈幕播放連接: ddplay:magnet:?xt=urn:btih:GNHNZDV3RW2H2SMI6UCDKZQMKIQUDLK5 播放器官方下載地址

外部搜索連接: 從谷歌搜索資源種子


  • mkv[MagicStar] Ultraman Decker EP23 [WEBDL] [1080p] [AMZN]/Ultraman.Decker.EP23.1080p.AMZN.WEB-DL.DDP2.0.H.264-MagicStar.mkv 1.6GB

***查看評論*** 請注意評論內容可能包含劇透

Processed in 0.001 second(s), 2 queries
Powered by tedmind.com Version: 1.8.1