動漫花園資源網logo

 
 

會員頭像

發佈人:jackieliiy

訂閱發佈人:

發佈組LOGO

所屬發佈組:魔星字幕团

訂閱發佈組:

[MagicStar] 为了单恋的他进行搜查、不知不觉就成为了名侦探。 / 片想いの彼のために捜査してたら、いつのまにか名探偵になりました。 [WEBDL] [1080p] [FOD]【生】

簡介: 

HD 1080p from FOD.
alt text
alt text

General Unique ID                      : 98443814955497806885179410525883422804 (0x4A0F96CFAAD1952F61F046C959B35854) Complete name                  : Kataomoi.no.Kare.no.Tame.ni.Sousa.Shitetara.Itsunomanika.Meitantei.ni.Narimashita.Kari.1080p.FOD.WEB-DL.AAC2.0.H.264-MagicStar.mkv Format                         : Matroska Format version                 : Version 4 File size                      : 662 MiB Duration                       : 22 min 5 s Overall bit rate mode          : Variable Overall bit rate               : 4 188 kb/s Encoded date                   : UTC 2023-01-14 23:09:26 Writing application            : mkvmerge v50.0.0 ('Awakenings') 64-bit Writing library                : libebml v1.4.0 + libmatroska v1.6.2  Video ID                             : 1 Format                         : AVC Format/Info                    : Advanced Video Codec Format profile                 : [email protected] Format settings                : CABAC / 2 Ref Frames Format settings, CABAC         : Yes Format settings, Reference fra : 2 frames Codec ID                       : V_MPEG4/ISO/AVC Duration                       : 22 min 5 s Bit rate mode                  : Variable Bit rate                       : 3 994 kb/s Maximum bit rate               : 10 000 kb/s Width                          : 1 920 pixels Height                         : 1 080 pixels Display aspect ratio           : 16:9 Frame rate mode                : Constant Frame rate                     : 29.970 (29970/1000) FPS Original frame rate            : 29.970 (30000/1001) FPS Color space                    : YUV Chroma subsampling             : 4:2:0 Bit depth                      : 8 bits Scan type                      : Progressive Bits/(Pixel*Frame)             : 0.064 Stream size                    : 631 MiB (95%) Default                        : Yes Forced                         : No Color range                    : Limited Color primaries                : BT.709 Transfer characteristics       : BT.709 Matrix coefficients            : BT.709  Audio ID                             : 2 Format                         : AAC LC Format/Info                    : Advanced Audio Codec Low Complexity Codec ID                       : A_AAC-2 Duration                       : 22 min 5 s Bit rate                       : 192 kb/s Channel(s)                     : 2 channels Channel layout                 : L R Sampling rate                  : 48.0 kHz Frame rate                     : 46.875 FPS (1024 SPF) Compression mode               : Lossy Stream size                    : 30.3 MiB (5%) Language                       : Japanese Default                        : Yes Forced                         : No

會員專用連接: [MagicStar] 为了单恋的他进行搜查、不知不觉就成为了名侦探。 / 片想いの彼のために捜査してたら、いつのまにか名探偵になりました。 [WEBDL] [1080p] [FOD]【生】

Magnet連接: magnet:?xt=urn:btih:RDDDT3LV2KUR27AAZWWOTRJPLLN2CVLC

Magnet連接typeII: magnet:?xt=urn:btih:88c639ed75d2a91d7c00cdace9c52f5adba15562

PikPak載點: 保存至pikpak ?

彈幕播放連接: ddplay:magnet:?xt=urn:btih:RDDDT3LV2KUR27AAZWWOTRJPLLN2CVLC 播放器官方下載地址

外部搜索連接: 從谷歌搜索資源種子


  • mkv[MagicStar] Kataomoi no Kare no Tame ni Sousa Shitetara, Itsunomanika Meitantei ni Narimashita. (Kari) [WEBDL] [1080p] [FOD]/Kataomoi.no.Kare.no.Tame.ni.Sousa.Shitetara.Itsunomanika.Meitantei.ni.Narimashita.Kari.1080p.FOD.WEB-DL.AAC2.0.H.264-MagicStar.mkv 662.1MB
  • mkv[MagicStar] Kataomoi no Kare no Tame ni Sousa Shitetara, Itsunomanika Meitantei ni Narimashita. (Kari) [WEBDL] [1080p] [FOD]/Kataomoi.no.Kare.no.Tame.ni.Sousa.Shitetara.Itsunomanika.Meitantei.ni.Narimashita.Kari.iCADs.1080p.FOD.WEB-DL.AAC2.0.H.264-MagicStar.mkv 639.7MB

***查看評論*** 請注意評論內容可能包含劇透

Processed in 0.001 second(s), 2 queries
Powered by tedmind.com Version: 1.8.1