動漫花園資源網logo

 
 

會員頭像

發佈人:jackieliiy

訂閱發佈人:

發佈組LOGO

所屬發佈組:魔星字幕团

訂閱發佈組:

[MagicStar] 尽管如此,他们还是说想结婚。 / それでも結婚したいと、ヤツらが言った。 EP03 [WEBDL] [1080p] [AMZN]【生】

簡介: 

HD 1080p from Prime Video.
Use CBR bitrate mode.


We are planning to upload all prime video japan Dramas and Movies, we need your Support!


Support Us

Ali (Zhifubao / QR code): https://i.ibb.co/FWV2ggm/1660626347125.png
PayPalMe: https://www.paypal.com/paypalme/sakuragikenji


alt text
alt text

General Unique ID                      : 113688790632586928007297582227290153806 (0x5587AA24ABA42B77AB55E5C6E6D5634E) Complete name                  : Soredemo.Kekkon.Shitai.to.Yatsura.ga.Itta.EP03.1080p.AMZN.WEB-DL.DDP2.0.H.264-MagicStar.mkv Format                         : Matroska Format version                 : Version 4 File size                      : 1.64 GiB Duration                       : 24 min 0 s Overall bit rate mode          : Constant Overall bit rate               : 9 766 kb/s Encoded date                   : UTC 2023-01-20 22:46:31 Writing application            : mkvmerge v50.0.0 ('Awakenings') 64-bit Writing library                : libebml v1.4.0 + libmatroska v1.6.2 Cover                          : Yes Attachments                    : cover.png  Video ID                             : 1 Format                         : AVC Format/Info                    : Advanced Video Codec Format profile                 : [email protected] Format settings                : CABAC / 4 Ref Frames Format settings, CABAC         : Yes Format settings, Reference fra : 4 frames Codec ID                       : V_MPEG4/ISO/AVC Duration                       : 24 min 0 s Bit rate mode                  : Constant Bit rate                       : 10 000 kb/s Width                          : 1 920 pixels Height                         : 1 080 pixels Display aspect ratio           : 16:9 Frame rate mode                : Constant Frame rate                     : 29.970 (29970/1000) FPS Original frame rate            : 29.970 (30000/1001) FPS Color space                    : YUV Chroma subsampling             : 4:2:0 Bit depth                      : 8 bits Scan type                      : Progressive Bits/(Pixel*Frame)             : 0.161 Stream size                    : 1.60 GiB (98%) Default                        : Yes Forced                         : No Color range                    : Limited Color primaries                : BT.709 Transfer characteristics       : BT.709 Matrix coefficients            : BT.709  Audio ID                             : 2 Format                         : E-AC-3 Format/Info                    : Enhanced AC-3 Commercial name                : Dolby Digital Plus Codec ID                       : A_EAC3 Duration                       : 24 min 0 s Bit rate mode                  : Constant Bit rate                       : 224 kb/s Channel(s)                     : 2 channels Channel layout                 : L R Sampling rate                  : 48.0 kHz Frame rate                     : 31.250 FPS (1536 SPF) Compression mode               : Lossy Stream size                    : 38.5 MiB (2%) Language                       : Japanese Service kind                   : Complete Main Default                        : Yes Forced                         : No

會員專用連接: [MagicStar] 尽管如此,他们还是说想结婚。 / それでも結婚したいと、ヤツらが言った。 EP03 [WEBDL] [1080p] [AMZN]【生】

Magnet連接: magnet:?xt=urn:btih:LDQANRCDPOUPSXWD7LRCLPJ2RYABSC72

Magnet連接typeII: magnet:?xt=urn:btih:58e006c4437ba8f95ec3fae225bd3a8e00190bfa

PikPak載點: 保存至pikpak ?

彈幕播放連接: ddplay:magnet:?xt=urn:btih:LDQANRCDPOUPSXWD7LRCLPJ2RYABSC72 播放器官方下載地址

外部搜索連接: 從谷歌搜索資源種子


  • mkv[MagicStar] Soredemo Kekkon Shitai to, Yatsura ga Itta. EP03 [WEBDL] [1080p] [AMZN]/Soredemo.Kekkon.Shitai.to.Yatsura.ga.Itta.EP03.1080p.AMZN.WEB-DL.DDP2.0.H.264-MagicStar.mkv 1.6GB

***查看評論*** 請注意評論內容可能包含劇透

Processed in 0 second(s), 2 queries
Powered by tedmind.com Version: 1.8.1