動漫花園資源網logo

 
 

會員頭像

發佈人:jackieliiy

訂閱發佈人:

發佈組LOGO

所屬發佈組:魔星字幕团

訂閱發佈組:

[MagicStar] 忍者结婚难 / 忍者に結婚は難しい EP03 [WEBDL] [1080p] [FOD]【生】【附日字&解说放送版音轨】

簡介: 

HD 1080p from FOD.
Japanese subtitles added.
Audio description added.
alt text
alt text

General Unique ID                      : 27960777404139758883728901527937143704 (0x15090CC2C7872E4910A536F03F9AD398) Complete name                  : Ninja.ni.Kekkon.wa.Muzukashii.EP03.1080p.FOD.WEB-DL.AAC2.0.H.264-MagicStar.mkv Format                         : Matroska Format version                 : Version 4 File size                      : 1.60 GiB Duration                       : 46 min 21 s Overall bit rate mode          : Variable Overall bit rate               : 4 948 kb/s Encoded date                   : UTC 2023-01-20 22:59:22 Writing application            : mkvmerge v50.0.0 ('Awakenings') 64-bit Writing library                : libebml v1.4.0 + libmatroska v1.6.2  Video ID                             : 1 Format                         : AVC Format/Info                    : Advanced Video Codec Format profile                 : [email protected] Format settings                : CABAC / 2 Ref Frames Format settings, CABAC         : Yes Format settings, Reference fra : 2 frames Codec ID                       : V_MPEG4/ISO/AVC Duration                       : 46 min 21 s Bit rate mode                  : Variable Bit rate                       : 4 561 kb/s Maximum bit rate               : 15.0 Mb/s Width                          : 1 920 pixels Height                         : 1 080 pixels Display aspect ratio           : 16:9 Frame rate mode                : Constant Frame rate                     : 29.970 (29970/1000) FPS Original frame rate            : 29.970 (30000/1001) FPS Color space                    : YUV Chroma subsampling             : 4:2:0 Bit depth                      : 8 bits Scan type                      : Progressive Bits/(Pixel*Frame)             : 0.073 Stream size                    : 1.48 GiB (92%) Default                        : Yes Forced                         : No Color range                    : Limited Color primaries                : BT.709 Transfer characteristics       : BT.709 Matrix coefficients            : BT.709  Audio #1 ID                             : 2 Format                         : AAC LC Format/Info                    : Advanced Audio Codec Low Complexity Codec ID                       : A_AAC-2 Duration                       : 46 min 21 s Bit rate                       : 192 kb/s Channel(s)                     : 2 channels Channel layout                 : L R Sampling rate                  : 48.0 kHz Frame rate                     : 46.875 FPS (1024 SPF) Compression mode               : Lossy Stream size                    : 63.7 MiB (4%) Title                          : 日本語 [オリジナル] Language                       : Japanese Default                        : Yes Forced                         : No  Audio #2 ID                             : 3 Format                         : AAC LC Format/Info                    : Advanced Audio Codec Low Complexity Codec ID                       : A_AAC-2 Duration                       : 46 min 21 s Bit rate                       : 192 kb/s Channel(s)                     : 2 channels Channel layout                 : L R Sampling rate                  : 48.0 kHz Frame rate                     : 46.875 FPS (1024 SPF) Compression mode               : Lossy Stream size                    : 63.7 MiB (4%) Title                          : 日本語 [解説放送音声] Language                       : Japanese Default                        : No Forced                         : No

會員專用連接: [MagicStar] 忍者结婚难 / 忍者に結婚は難しい EP03 [WEBDL] [1080p] [FOD]【生】【附日字&解说放送版音轨】

Magnet連接: magnet:?xt=urn:btih:LCF3WQ54LGJJZZG2TO7PJUGSAIN6J6LG

Magnet連接typeII: magnet:?xt=urn:btih:588bbb43bc59929ce4da9bbef4d0d2021be4f966

PikPak載點: 保存至pikpak ?

彈幕播放連接: ddplay:magnet:?xt=urn:btih:LCF3WQ54LGJJZZG2TO7PJUGSAIN6J6LG 播放器官方下載地址

外部搜索連接: 從谷歌搜索資源種子


  • mkv[MagicStar] Ninja ni Kekkon wa Muzukashii EP03 [WEBDL] [1080p] [FOD] [JPN_SUB]/Ninja.ni.Kekkon.wa.Muzukashii.EP03.1080p.FOD.WEB-DL.AAC2.0.H.264-MagicStar.mkv 1.6GB
  • srt[MagicStar] Ninja ni Kekkon wa Muzukashii EP03 [WEBDL] [1080p] [FOD] [JPN_SUB]/Ninja.ni.Kekkon.wa.Muzukashii.EP03.1080p.FOD.WEB-DL.AAC2.0.H.264-MagicStar.srt 59KB

***查看評論*** 請注意評論內容可能包含劇透

Processed in 0 second(s), 2 queries
Powered by tedmind.com Version: 1.8.1