動漫花園資源網logo

 
 

會員頭像

發佈人:jackieliiy

訂閱發佈人:

發佈組LOGO

所屬發佈組:魔星字幕团

訂閱發佈組:

【日影】[MagicStar] 风云儿 织田信长 / 風雲児 織田信長 1959 [WEBDL] [1080p] [AMZN]【生】

簡介: 

HD 1080p from Prime Video.


We are planning to upload all prime video japan Dramas and Movies, we need your Support!


Support Us

Ali (Zhifubao / QR code): https://i.ibb.co/FWV2ggm/1660626347125.png
PayPalMe: https://www.paypal.com/paypalme/sakuragikenji


alt text
alt text

General Unique ID                      : 266611967482069591202665142530037522832 (0xC89398E02BAA384E74305339612C2190) Complete name                  : Fuunji.Oda.Nobunaga.1959.1080p.AMZN.WEB-DL.DDP2.0.H.264-MagicStar.mkv Format                         : Matroska Format version                 : Version 4 File size                      : 8.40 GiB Duration                       : 1 h 35 min Overall bit rate               : 12.6 Mb/s Encoded date                   : UTC 2023-01-24 21:19:59 Writing application            : mkvmerge v50.0.0 ('Awakenings') 64-bit Writing library                : libebml v1.4.0 + libmatroska v1.6.2 Cover                          : Yes Attachments                    : cover.png  Video ID                             : 1 Format                         : AVC Format/Info                    : Advanced Video Codec Format profile                 : [email protected] Format settings                : CABAC / 4 Ref Frames Format settings, CABAC         : Yes Format settings, Reference fra : 4 frames Codec ID                       : V_MPEG4/ISO/AVC Duration                       : 1 h 35 min Bit rate                       : 12.4 Mb/s Width                          : 1 920 pixels Height                         : 816 pixels Display aspect ratio           : 2.35:1 Frame rate mode                : Constant Frame rate                     : 29.970 (29970/1000) FPS Original frame rate            : 29.970 (30000/1001) FPS Color space                    : YUV Chroma subsampling             : 4:2:0 Bit depth                      : 8 bits Scan type                      : Progressive Bits/(Pixel*Frame)             : 0.264 Stream size                    : 8.25 GiB (98%) Default                        : Yes Forced                         : No Color range                    : Limited Color primaries                : BT.709 Transfer characteristics       : BT.709 Matrix coefficients            : BT.709  Audio ID                             : 2 Format                         : E-AC-3 Format/Info                    : Enhanced AC-3 Commercial name                : Dolby Digital Plus Codec ID                       : A_EAC3 Duration                       : 1 h 35 min Bit rate mode                  : Constant Bit rate                       : 224 kb/s Channel(s)                     : 2 channels Channel layout                 : L R Sampling rate                  : 48.0 kHz Frame rate                     : 31.250 FPS (1536 SPF) Compression mode               : Lossy Stream size                    : 152 MiB (2%) Title                          : 日本語 [オリジナル] Language                       : Japanese Service kind                   : Complete Main Default                        : Yes Forced                         : No

會員專用連接: 【日影】[MagicStar] 风云儿 织田信长 / 風雲児 織田信長 1959 [WEBDL] [1080p] [AMZN]【生】

Magnet連接: magnet:?xt=urn:btih:2NVZV6QTCI4AK3OLM43IL4KYR7VV74MP

Magnet連接typeII: magnet:?xt=urn:btih:d36b9afa131238056dcb673685f1588feb5ff18f

PikPak載點: 保存至pikpak ?

彈幕播放連接: ddplay:magnet:?xt=urn:btih:2NVZV6QTCI4AK3OLM43IL4KYR7VV74MP 播放器官方下載地址

外部搜索連接: 從谷歌搜索資源種子


  • mkv[MagicStar] Fuunji Oda Nobunaga 1959 [WEBDL] [1080p] [AMZN]/Fuunji.Oda.Nobunaga.1959.1080p.AMZN.WEB-DL.DDP2.0.H.264-MagicStar.mkv 8.4GB

***查看評論*** 請注意評論內容可能包含劇透

Processed in 0.001 second(s), 2 queries
Powered by tedmind.com Version: 1.8.1