動漫花園資源網logo

 
 

會員頭像

發佈人:jackieliiy

訂閱發佈人:

發佈組LOGO

所屬發佈組:魔星字幕团

訂閱發佈組:

[MagicStar] 擦不掉的「我」-复仇的连锁- / 消せない「私」-復讐の連鎖- EP06 [WEBDL] [1080p] [HULU]【生】【附日字】

簡介: 

HD 1080p from HULU JAPAN.
alt text
alt text

General Unique ID                      : 248610946730257078109082039857193112985 (0xBB08BA07C48A2EBF3A81CCC98CBF5599) Complete name                  : Kesenai.Watashi.Fukushuu.no.Rensa.EP06.1080p.HULU.WEB-DL.AAC2.0.H.264-MagicStar.mkv Format                         : Matroska Format version                 : Version 4 File size                      : 545 MiB Duration                       : 22 min 8 s Overall bit rate               : 3 445 kb/s Frame rate                     : 29.970 FPS Encoded date                   : 2024-02-11 10:23:41 UTC Writing application            : mkvmerge v50.0.0 ('Awakenings') 64-bit Writing library                : libebml v1.4.0 + libmatroska v1.6.2 Cover                          : Yes Attachments                    : cover.png  Video ID                             : 1 Format                         : AVC Format/Info                    : Advanced Video Codec Format profile                 : High@L4 Format settings                : CABAC / 4 Ref Frames Format settings, CABAC         : Yes Format settings, Reference fra : 4 frames Codec ID                       : V_MPEG4/ISO/AVC Duration                       : 22 min 7 s Bit rate                       : 3 188 kb/s Width                          : 1 920 pixels Height                         : 1 080 pixels Display aspect ratio           : 16:9 Frame rate mode                : Constant Frame rate                     : 29.970 (29970/1000) FPS Original frame rate            : 29.970 (30000/1001) FPS Color space                    : YUV Chroma subsampling             : 4:2:0 Bit depth                      : 8 bits Scan type                      : Progressive Bits/(Pixel*Frame)             : 0.051 Stream size                    : 505 MiB (93%) Default                        : Yes Forced                         : No Color range                    : Limited Color primaries                : BT.709 Transfer characteristics       : BT.709 Matrix coefficients            : BT.709  Audio ID                             : 2 Format                         : AAC LC Format/Info                    : Advanced Audio Codec Low Complexity Codec ID                       : A_AAC-2 Duration                       : 22 min 8 s Bit rate                       : 253 kb/s Channel(s)                     : 2 channels Channel layout                 : L R Sampling rate                  : 48.0 kHz Frame rate                     : 46.875 FPS (1024 SPF) Compression mode               : Lossy Stream size                    : 40.1 MiB (7%) Title                          : 日本語 [オリジナル] Language                       : Japanese Default                        : Yes Forced                         : No

會員專用連接: [MagicStar] 擦不掉的「我」-复仇的连锁- / 消せない「私」-復讐の連鎖- EP06 [WEBDL] [1080p] [HULU]【生】【附日字】

Magnet連接: magnet:?xt=urn:btih:LYU3OHOHBKP6X2UJDFVB7P3UM54XGJ6A

Magnet連接typeII: magnet:?xt=urn:btih:5e29b71dc70a9febea89196a1fbf7467797327c0

在线播放: 保存至云端 ?

彈幕播放連接: ddplay:magnet:?xt=urn:btih:LYU3OHOHBKP6X2UJDFVB7P3UM54XGJ6A 播放器官方下載地址

外部搜索連接: 從谷歌搜索資源種子


  • mkv[MagicStar] Kesenai [Watashi] - Fukushuu no Rensa - EP06 [WEBDL] [1080p] [HULU] [JPN_SUB]/Kesenai.Watashi.Fukushuu.no.Rensa.EP06.1080p.HULU.WEB-DL.AAC2.0.H.264-MagicStar.mkv 545.4MB
  • srt[MagicStar] Kesenai [Watashi] - Fukushuu no Rensa - EP06 [WEBDL] [1080p] [HULU] [JPN_SUB]/Kesenai.Watashi.Fukushuu.no.Rensa.EP06.1080p.HULU.WEB-DL.AAC2.0.H.264-MagicStar.srt 22.6KB

***查看評論*** 請注意評論內容可能包含劇透

Processed in 0.001 second(s), 2 queries
Powered by tedmind.com Version: 1.8.1