動漫花園資源網logo

 
 

會員頭像

發佈人:jackieliiy

訂閱發佈人:

發佈組LOGO

所屬發佈組:魔星字幕团

訂閱發佈組:

[MagicStar] 搬运工 / 運び屋 EP03 [WEBDL] [1080p] [AMZN]【生】【附日字】

簡介: 

HD 1080p from Prime Video.
Use CBR bitrate mode. Japanese subtitles added.


We are planning to upload all Prime Video Japan Dramas and Movies, we need your Support!


Support Us

Ali (Zhifubao / QR code): https://i.ibb.co/FWV2ggm/1660626347125.png
PayPalMe: https://www.paypal.com/paypalme/sakuragikenji
ETH (ERC20): 0xea3286E176099E8C9aBaf25A0edf231374C04E89
USDT (BTC / OMNI): 1Lemw6fu5vG3NdvWGxDxsPX7T7yUb3rNzu


alt text
alt text

General Unique ID                      : 143641033063571326731866188411981935916 (0x6C1041B5E91AA1A8DE8A6CED6A0A352C) Complete name                  : Hakobiya.EP03.1080p.AMZN.WEB-DL.DDP2.0.H.264-MagicStar.mkv Format                         : Matroska Format version                 : Version 4 File size                      : 1.41 GiB Duration                       : 24 min 2 s Overall bit rate mode          : Constant Overall bit rate               : 8 379 kb/s Frame rate                     : 29.970 FPS Encoded date                   : 2024-02-07 08:06:53 UTC Writing application            : mkvmerge v50.0.0 ('Awakenings') 64-bit Writing library                : libebml v1.4.0 + libmatroska v1.6.2 Cover                          : Yes Attachments                    : cover.jpg  Video ID                             : 1 Format                         : AVC Format/Info                    : Advanced Video Codec Format profile                 : High@L4 Format settings                : CABAC / 4 Ref Frames Format settings, CABAC         : Yes Format settings, Reference fra : 4 frames Codec ID                       : V_MPEG4/ISO/AVC Duration                       : 24 min 1 s Bit rate mode                  : Constant Bit rate                       : 8 150 kb/s Nominal bit rate               : 10 000 kb/s Width                          : 1 920 pixels Height                         : 1 080 pixels Display aspect ratio           : 16:9 Frame rate mode                : Constant Frame rate                     : 29.970 (29970/1000) FPS Original frame rate            : 29.970 (30000/1001) FPS Color space                    : YUV Chroma subsampling             : 4:2:0 Bit depth                      : 8 bits Scan type                      : Progressive Bits/(Pixel*Frame)             : 0.131 Stream size                    : 1.37 GiB (97%) Default                        : Yes Forced                         : No Color range                    : Limited Color primaries                : BT.709 Transfer characteristics       : BT.709 Matrix coefficients            : BT.709  Audio ID                             : 2 Format                         : E-AC-3 Format/Info                    : Enhanced AC-3 Commercial name                : Dolby Digital Plus Codec ID                       : A_EAC3 Duration                       : 24 min 2 s Bit rate mode                  : Constant Bit rate                       : 224 kb/s Channel(s)                     : 2 channels Channel layout                 : L R Sampling rate                  : 48.0 kHz Frame rate                     : 31.250 FPS (1536 SPF) Compression mode               : Lossy Stream size                    : 38.5 MiB (3%) Title                          : 日本語 [オリジナル] Language                       : Japanese Service kind                   : Complete Main Default                        : Yes Forced                         : No

會員專用連接: [MagicStar] 搬运工 / 運び屋 EP03 [WEBDL] [1080p] [AMZN]【生】【附日字】

Magnet連接: magnet:?xt=urn:btih:JWAHB7CYCSBD6KVMVW4WXXZ5A766TXUK

Magnet連接typeII: magnet:?xt=urn:btih:4d8070fc5814823f2aacadb96bdf3d07fde9de8a

在线播放: 保存至云端 ?

彈幕播放連接: ddplay:magnet:?xt=urn:btih:JWAHB7CYCSBD6KVMVW4WXXZ5A766TXUK 播放器官方下載地址

外部搜索連接: 從谷歌搜索資源種子


  • mkv[MagicStar] Hakobiya EP03 [WEBDL] [1080p] [AMZN] [JPN_SUB]/Hakobiya.EP03.1080p.AMZN.WEB-DL.DDP2.0.H.264-MagicStar.mkv 1.4GB
  • srt[MagicStar] Hakobiya EP03 [WEBDL] [1080p] [AMZN] [JPN_SUB]/Hakobiya.EP03.1080p.AMZN.WEB-DL.DDP2.0.H.264-MagicStar.srt 25.2KB

***查看評論*** 請注意評論內容可能包含劇透

Processed in 0.002 second(s), 3 queries
Powered by tedmind.com Version: 1.8.1