動漫花園資源網logo

 
 

會員頭像

發佈人:jackieliiy

訂閱發佈人:

發佈組LOGO

所屬發佈組:魔星字幕团

訂閱發佈組:

[MagicStar] 被夺走肝的妻子 / 肝臓を奪われた妻 EP07 [WEBDL] [1080p] [HULU]【生】【附日字】

簡介: 

HD 1080p from HULU JAPAN.
Japanese subtitles added.


Support Us

Ali (Zhifubao / QR code): https://i.ibb.co/FWV2ggm/1660626347125.png
PayPalMe: https://www.paypal.com/paypalme/sakuragikenji
BTC (USDT): 19y5NF6voysif7PeJLv86Hf186ZS1i4rwu
ETH: 0x807B4eec355Cfa65500BeE65A992a9a0d8432697
LTC: LUC2dTQkte7muv5oUUuRNJimLJvi9pgZUQ


alt text
alt text

General Unique ID                      : 80959785180789270068297437837960730826 (0x3CE84996C996CD02320192851AB8D8CA) Complete name                  : Kanzou.wo.Ubawareta.Tsuma.EP07.1080p.HULU.WEB-DL.AAC2.0.H.264-MagicStar.mkv Format                         : Matroska Format version                 : Version 4 File size                      : 616 MiB Duration                       : 23 min 8 s Overall bit rate               : 3 724 kb/s Frame rate                     : 29.970 FPS Encoded date                   : 2024-05-14 19:10:18 UTC Writing application            : mkvmerge v50.0.0 ('Awakenings') 64-bit Writing library                : libebml v1.4.0 + libmatroska v1.6.2 Cover                          : Yes Attachments                    : cover.png  Video ID                             : 1 Format                         : AVC Format/Info                    : Advanced Video Codec Format profile                 : High@L4 Format settings                : CABAC / 4 Ref Frames Format settings, CABAC         : Yes Format settings, Reference fra : 4 frames Codec ID                       : V_MPEG4/ISO/AVC Duration                       : 23 min 7 s Bit rate                       : 3 468 kb/s Width                          : 1 920 pixels Height                         : 1 080 pixels Display aspect ratio           : 16:9 Frame rate mode                : Constant Frame rate                     : 29.970 (29970/1000) FPS Original frame rate            : 29.970 (30000/1001) FPS Color space                    : YUV Chroma subsampling             : 4:2:0 Bit depth                      : 8 bits Scan type                      : Progressive Bits/(Pixel*Frame)             : 0.056 Stream size                    : 574 MiB (93%) Default                        : Yes Forced                         : No Color range                    : Limited Color primaries                : BT.709 Transfer characteristics       : BT.709 Matrix coefficients            : BT.709  Audio ID                             : 2 Format                         : AAC LC Format/Info                    : Advanced Audio Codec Low Complexity Codec ID                       : A_AAC-2 Duration                       : 23 min 8 s Bit rate                       : 253 kb/s Channel(s)                     : 2 channels Channel layout                 : L R Sampling rate                  : 48.0 kHz Frame rate                     : 46.875 FPS (1024 SPF) Compression mode               : Lossy Stream size                    : 41.9 MiB (7%) Title                          : 日本語 [オリジナル] Language                       : Japanese Default                        : Yes Forced                         : No

會員專用連接: [MagicStar] 被夺走肝的妻子 / 肝臓を奪われた妻 EP07 [WEBDL] [1080p] [HULU]【生】【附日字】

Magnet連接: magnet:?xt=urn:btih:M7K73B53IGSMI7XVWHZFGLALJYXEABIL

Magnet連接typeII: magnet:?xt=urn:btih:67d5fd87bb41a4c47ef5b1f2532c0b4e2e40050b

在线播放: 保存至云端 ?

彈幕播放連接: ddplay:magnet:?xt=urn:btih:M7K73B53IGSMI7XVWHZFGLALJYXEABIL 播放器官方下載地址

外部搜索連接: 從谷歌搜索資源種子


  • mkv[MagicStar] Kanzou wo Ubawareta Tsuma EP07 [WEBDL] [1080p] [HULU] [JPN_SUB]/Kanzou.wo.Ubawareta.Tsuma.EP07.1080p.HULU.WEB-DL.AAC2.0.H.264-MagicStar.mkv 616.2MB
  • srt[MagicStar] Kanzou wo Ubawareta Tsuma EP07 [WEBDL] [1080p] [HULU] [JPN_SUB]/Kanzou.wo.Ubawareta.Tsuma.EP07.1080p.HULU.WEB-DL.AAC2.0.H.264-MagicStar.srt 22.7KB

***查看評論*** 請注意評論內容可能包含劇透

Processed in 0.667 second(s), 3 queries
Powered by tedmind.com Version: 1.8.1