動漫花園資源網logo

 
 

會員頭像

發佈人:jackieliiy

訂閱發佈人:

發佈組LOGO

所屬發佈組:魔星字幕团

訂閱發佈組:

[MagicStar] 给小酒馆女子喝高杯酒 / スナック女子にハイボールを EP06 [WEBDL] [1080p] [HULU]【生】【附日字】

簡介: 

HD 1080p from HULU JAPAN.
Japanese subtitles added.


Support Us

Ali (Zhifubao / QR code): https://i.ibb.co/FWV2ggm/1660626347125.png
PayPalMe: https://www.paypal.com/paypalme/sakuragikenji
BTC (USDT): 19y5NF6voysif7PeJLv86Hf186ZS1i4rwu
ETH: 0x807B4eec355Cfa65500BeE65A992a9a0d8432697
LTC: LUC2dTQkte7muv5oUUuRNJimLJvi9pgZUQ


alt text
alt text

General Unique ID                      : 22589884879503278400676748673067645521 (0x10FEA7508EE1E64BCAE51F396169FA51) Complete name                  : Snack.Joshi.ni.Highball.wo.EP06.1080p.HULU.WEB-DL.AAC2.0.H.264-MagicStar.mkv Format                         : Matroska Format version                 : Version 4 File size                      : 977 MiB Duration                       : 24 min 27 s Overall bit rate               : 5 584 kb/s Frame rate                     : 29.970 FPS Encoded date                   : 2024-05-09 17:52:14 UTC Writing application            : mkvmerge v50.0.0 ('Awakenings') 64-bit Writing library                : libebml v1.4.0 + libmatroska v1.6.2 Cover                          : Yes Attachments                    : cover.png  Video ID                             : 1 Format                         : AVC Format/Info                    : Advanced Video Codec Format profile                 : High@L4 Format settings                : CABAC / 4 Ref Frames Format settings, CABAC         : Yes Format settings, Reference fra : 4 frames Codec ID                       : V_MPEG4/ISO/AVC Duration                       : 24 min 27 s Bit rate                       : 5 328 kb/s Width                          : 1 920 pixels Height                         : 1 080 pixels Display aspect ratio           : 16:9 Frame rate mode                : Constant Frame rate                     : 29.970 (29970/1000) FPS Original frame rate            : 29.970 (30000/1001) FPS Color space                    : YUV Chroma subsampling             : 4:2:0 Bit depth                      : 8 bits Scan type                      : Progressive Bits/(Pixel*Frame)             : 0.086 Stream size                    : 932 MiB (95%) Default                        : Yes Forced                         : No Color range                    : Limited Color primaries                : BT.709 Transfer characteristics       : BT.709 Matrix coefficients            : BT.709  Audio ID                             : 2 Format                         : AAC LC Format/Info                    : Advanced Audio Codec Low Complexity Codec ID                       : A_AAC-2 Duration                       : 24 min 27 s Bit rate                       : 253 kb/s Channel(s)                     : 2 channels Channel layout                 : L R Sampling rate                  : 48.0 kHz Frame rate                     : 46.875 FPS (1024 SPF) Compression mode               : Lossy Stream size                    : 44.3 MiB (5%) Title                          : 日本語 [オリジナル] Language                       : Japanese Default                        : Yes Forced                         : No

會員專用連接: [MagicStar] 给小酒馆女子喝高杯酒 / スナック女子にハイボールを EP06 [WEBDL] [1080p] [HULU]【生】【附日字】

Magnet連接: magnet:?xt=urn:btih:WJRYBIRTU4IDGDKE5G7RYWHFAYLXYPA2

Magnet連接typeII: magnet:?xt=urn:btih:b26380a233a710330d44e9bf1c58e506177c3c1a

在线播放: 保存至云端 ?

彈幕播放連接: ddplay:magnet:?xt=urn:btih:WJRYBIRTU4IDGDKE5G7RYWHFAYLXYPA2 播放器官方下載地址

外部搜索連接: 從谷歌搜索資源種子


  • mkv[MagicStar] Snack Joshi ni Highball wo EP06 [WEBDL] [1080p] [HULU] [JPN_SUB]/Snack.Joshi.ni.Highball.wo.EP06.1080p.HULU.WEB-DL.AAC2.0.H.264-MagicStar.mkv 976.6MB
  • srt[MagicStar] Snack Joshi ni Highball wo EP06 [WEBDL] [1080p] [HULU] [JPN_SUB]/Snack.Joshi.ni.Highball.wo.EP06.1080p.HULU.WEB-DL.AAC2.0.H.264-MagicStar.srt 43.5KB

***查看評論*** 請注意評論內容可能包含劇透

Processed in 0.001 second(s), 2 queries
Powered by tedmind.com Version: 1.8.1