動漫花園資源網logo

 
 

會員頭像

發佈人:jackieliiy

訂閱發佈人:

發佈組LOGO

所屬發佈組:魔星字幕团

訂閱發佈組:

[MagicStar] 特搜9 第七季 / Tokusou 9 Season7 EP07 [WEBDL] [1080p]【生】【解说放送版】【附日字】

簡介: 

HD 1080p from TVer.
Japanese subtitles added.
Audio Description.
alt text
alt text

General Unique ID                      : 320507159664977813496643486035967616633 (0xF11F6F01A66B645BAAEB92C534A62679) Complete name                  : [MagicStar] Tokusou 9 Season7 EP07 [WEBDL] [1080p] [Audio Description].mkv Format                         : Matroska Format version                 : Version 4 File size                      : 913 MiB Duration                       : 44 min 33 s Overall bit rate               : 2 866 kb/s Frame rate                     : 29.970 FPS Encoded date                   : 2024-05-15 13:36:32 UTC Writing application            : mkvmerge v50.0.0 ('Awakenings') 64-bit Writing library                : libebml v1.4.0 + libmatroska v1.6.2  Video ID                             : 1 Format                         : AVC Format/Info                    : Advanced Video Codec Format profile                 : High@L4 Format settings                : CABAC / 4 Ref Frames Format settings, CABAC         : Yes Format settings, Reference fra : 4 frames Codec ID                       : V_MPEG4/ISO/AVC Duration                       : 44 min 32 s Bit rate                       : 2 672 kb/s Width                          : 1 920 pixels Height                         : 1 080 pixels Display aspect ratio           : 16:9 Frame rate mode                : Constant Frame rate                     : 29.970 (29970/1000) FPS Original frame rate            : 29.970 (30000/1001) FPS Color space                    : YUV Chroma subsampling             : 4:2:0 Bit depth                      : 8 bits Scan type                      : Progressive Bits/(Pixel*Frame)             : 0.043 Stream size                    : 851 MiB (93%) Default                        : Yes Forced                         : No Color range                    : Limited Matrix coefficients            : BT.709  Audio ID                             : 2 Format                         : AAC LC Format/Info                    : Advanced Audio Codec Low Complexity Codec ID                       : A_AAC-2 Duration                       : 44 min 33 s Bit rate                       : 192 kb/s Channel(s)                     : 2 channels Channel layout                 : L R Sampling rate                  : 48.0 kHz Frame rate                     : 46.875 FPS (1024 SPF) Compression mode               : Lossy Stream size                    : 61.1 MiB (7%) Title                          : 日本語 [解説放送音声] Language                       : Japanese Default                        : Yes Forced                         : No

會員專用連接: [MagicStar] 特搜9 第七季 / Tokusou 9 Season7 EP07 [WEBDL] [1080p]【生】【解说放送版】【附日字】

Magnet連接: magnet:?xt=urn:btih:WNOAYEVJCKJXZUZYQNDM76FNQ5RBZA7E

Magnet連接typeII: magnet:?xt=urn:btih:b35c0c12a912937cd3388346cff8ad87621c83e4

在线播放: 保存至云端 ?

彈幕播放連接: ddplay:magnet:?xt=urn:btih:WNOAYEVJCKJXZUZYQNDM76FNQ5RBZA7E 播放器官方下載地址

外部搜索連接: 從谷歌搜索資源種子


  • mkv[MagicStar] Tokusou 9 Season7 EP07 [WEBDL] [1080p] [JPN_SUB] [Audio Description]/[MagicStar] Tokusou 9 Season7 EP07 [WEBDL] [1080p] [Audio Description].mkv 913.3MB
  • srt[MagicStar] Tokusou 9 Season7 EP07 [WEBDL] [1080p] [JPN_SUB] [Audio Description]/[MagicStar] Tokusou 9 Season7 EP07 [WEBDL] [1080p] [Audio Description].srt 83.4KB

***查看評論*** 請注意評論內容可能包含劇透

Processed in 0.001 second(s), 2 queries
Powered by tedmind.com Version: 1.8.1